img image001 image001 image001 image001 image001 image001 image001 image001 image001 image001 image001 image001 image001 image001 image001

Planets Sun Sun Sun
Статистика раздачи
Автор: Снежана | Размер: 3.94 ГБ | Добавлен: 24 июл 2013
Раздают: 7    Качают: 12
Скачать торрент
Скачать торрент
Описание торрента

СообщениеДобавлено: 24 июл 2013 

#77

Год выпуска: 2011
Страна: Россия
Продолжительность: 01 : 36 : 54
Перевод: Профессиональный (одноголосый)
Жанр: Видео-путешествие
Русские субтитры: нет
Описание: Восемь часовых поясов — около 9000 км — преодо¬левает поезд Транссибирской магистрали на пути от Москвы до Пекина. Такой маршрут заслуживает эпитета легендарный». На протяжении ста лет он является главным свидетелем бурных исторических событий. Путешествие по этому маршруту — на¬стоящее приключение, граничащее с мистическим переживанием. Нам предстоят встречи с разными культурами и национальными характерами — с не¬постижимым духом России, гостеприимной Монго¬лией и непроницаемым Китаем, который разрывает¬ся между традицией и современностью. Из столицы России мы заглянем в Санкт-Петербург, который сияет во всей своей красе и в рейтинге самых вели¬колепных городов мира может смело соперничать с Веной, Прагой или Парижем. Главная гордость это¬го пересеченного каналами города — знаменитый Эрмитаж, где хранится одна из крупнейших миро¬вых коллекций искусства. С каждым очередным ки¬лометром путешествия на восток время замедляет свой бег. Екатеринбург, Омск, Новосибирск, Крас¬ноярск и Иркутск — очередные остановки в пути. Мы побываем на Байкале, самом глубоком озере на¬шей планеты, где нашли прибежище десятки редких видов животных и растений. Затем нас ждет Мон¬голия — страна бескрайних степей и девственной природы. Через негостеприимную пустыню Гоби мы, наконец, доберемся до Китая. Завершающий штрих путешествия — осмотр Запретного Города и Великой Китайской стены.
Доп. информация: Язык русский и украинский.

Файл:
Видео
Идентификатор : 224 (0xE0)
Формат : MPEG Video
Версия формата : Version 2
Профиль формата : Main@Main
Параметр BVOP формата : Да
Параметр матрицы формата : По умолчанию
Параметры GOP формата : M=3, N=12
Продолжительность : 26 м.
Вид битрейта : Переменный
Битрейт : 4991 Кбит/сек
Номинальный битрейт : 7700 Кбит/сек
Ширина : 720 пикс.
Высота : 576 пикс.
Соотношение сторон : 4:3
Частота кадров : 25,000 кадр/сек
Стандарт вещания : PAL
Цветовое пространство : YUV
Подвыборка цветности : 4:2:0
Битовая глубина : 8 бит
Тип развёртки : Чересстрочная
Порядок развёртки : Верхнее поле первое
Метод сжатия : С потерями
Бит/(Пиксели*Кадры) : 0.481
Размер потока : 932 Мбайт (91%)

Аудио #1
Идентификатор : 189 (0xBD)-128 (0x80)
Формат : AC-3
Формат/Информация : Audio Coding 3
Расширение режима : CM (complete main)
Режим смешивания : DVD-Video
Продолжительность : 26 м.
Вид битрейта : Постоянный
Битрейт : 192 Кбит/сек
Каналы : 2 канала
Расположение каналов : Front: L R
Частота : 48,0 КГц
Битовая глубина : 16 бит
Метод сжатия : С потерями
Размер потока : 35,8 Мбайт (4%)

Аудио #2
Идентификатор : 189 (0xBD)-129 (0x81)
Формат : AC-3
Формат/Информация : Audio Coding 3
Расширение режима : CM (complete main)
Режим смешивания : DVD-Video
Продолжительность : 26 м.
Вид битрейта : Постоянный
Битрейт : 192 Кбит/сек
Каналы : 2 канала
Расположение каналов : Front: L R
Частота : 48,0 КГц
Битовая глубина : 16 бит
Метод сжатия : С потерями
Размер потока : 35,8 Мбайт (4%)

Качество : DVD5
Формат: DVD video
Видео кодек: MPEG2
Аудио кодек: AC3
Видео: PAL (4:3), 720 х 576, 25 fps, MPEG-2 Video, VBR
Аудио: 48 kHz, АС-3, 2 ch, 192.00 kbps avg






   Похожие торренты   Торрент   Размер 
В этой теме нет новых непрочитанных сообщений. Золотой глобус. Выпуск 83. Транссибирская магистраль (2011) DVDRip от KinoZalSat

19 | 6

1.36 ГБ

В этой теме нет новых непрочитанных сообщений. Александр Розенбаум - Транссибирская магистраль (1999) MP3

29 | 146

152.04 МБ

В этой теме нет новых непрочитанных сообщений. Александр Розенбаум - Транссибирская магистраль (1999) FLAC

1 | 2

475.28 МБ

В этой теме нет новых непрочитанных сообщений. Золотой Глобус: Крит / Golden Globe: Crete (2011) BDRip AVC

84 | 7

2.12 ГБ

В этой теме нет новых непрочитанных сообщений. Золотой Глобус: Крит / Golden Globe: Crete (2011) BDRip 1080p

67 | 12

7.75 ГБ

В этой теме нет новых непрочитанных сообщений. Золотой глобус. Выпуск 82. Франция. Гастрономическое путешествие (2011) DVDRip от KinoZalSat

196 | 5

1.36 ГБ

В этой теме нет новых непрочитанных сообщений. Золотой глобус. Выпуск 100. Бавария. Сердце Германии (2011) DVDRip от KinoZalSat

225 | 4

1.36 ГБ




Вы не можете начинать темы
Вы не можете отвечать на сообщения
Вы не можете редактировать свои сообщения
Вы не можете удалять свои сообщения
Вы не можете добавлять вложения

Перейти:  
Для Мосгорсуда, Роскомнадзора и рекламодателей: mosgorsud-torrent[собачка]yandex.ru
 Вход
ppkBB3cker v.2 © 2008-2014 @ PPK
[ Time : 0.526s | 14 Queries | GZIP : Off ]

Торрент трекер RUTOR.IN, Не можете зайти на rutor.org? Какой новый адрес рутор? Какое зеркало рутор? Не работает rutor.org и зеркала? Тогда наш торрент специально для вас. Rutor.in неофициальное зеркало rutor. В случае если у Вас заблокирован rutor или вдруг Вы не можете на него зайти, то Вы без труда сможете скачать бесплатно и без рекламы последние новинки кино, игр, сериалов и прочего у нас, на Rutor.in. Не нужно использовать прокси, чтобы зайти на рутор, достаточно воспользоваться нашим ресурсом. Все новые фильмы, игры, сериалы, книги и музыка за 2013 и 2014 годы через торрент бесплатно. Скачивайте фильмы в хорошем качестве, игры для пк, xbox, playstation без регистрации. У нас вы найдете новые Зарубежные сериалы и Русские сериалы 2013, 2014, 2015 годов. Оставайтесь с нами, качайте любимые фильмы, игры, сериалы, книги и музыку.