img image001 image001 image001 image001 image001 image001 image001 image001 image001 image001 image001 image001 image001 image001 image001

Planets Sun Sun Sun
Статистика раздачи
Автор: Снежана | Размер: 5.63 ГБ | Добавлен: 24 июл 2013
Раздают: 6    Качают: 5
Скачать торрент
Скачать торрент
Описание торрента

СообщениеДобавлено: 24 июл 2013 



Информация о фильме
Название:National Geographic:Самые странные в мире
Оригинальное название:National Geographic:World`s Weirdest
Год выхода: 2010
Жанр: Научно-документальный
Режиссер: Todd Hermann,Catherine Yelloz

О фильме:
Будьте осторожны.Смотрите по сторонам. Странные создания будь то где: на суше,в небе,на море - ждут возможность напасть. Причудливое оружие,поразительные защитные реакции. Все в опасности,где есть такие чудаки.

Список серий :
1 серия -Чудаки на суше
2 серия - Чудаки в небе
3 серия - Чудаки в океане


Страна: США
Студия: National Geographic
Продолжительность: 3 серии ~ 00:45:00
Перевод: Профессиональный (одноголосый)

РЕЛИЗ
ОТ


Файл
Кодек: MPEG4/ISO/AVC
Качество: HDRip 720p
Видео: 1280 x 720 (1.778) at 25.000 fps/Matroska at 5968 Кбит/сек
Звук: AC-3 at 384 Кбит/сек/2 канала(ов), 48,0 КГц

MediaInfo
Формат : Matroska
Продолжительность : 45 м.
Общий поток : 5968 Кбит/сек
Дата кодирования : UTC 2011-07-13 18:47:01
Программа кодирования : mkvmerge v4.3.0 ('Escape from the Island') сборка от Sep 5 2010 10:30:51
Библиотека кодирования : libebml v1.0.0 + libmatroska v1.0.0

Видео
Идентификатор : 1
Формат : AVC
Формат/Информация : Advanced Video Codec
Профиль формата : Main@L3.1
Параметр CABAC формата : Да
Параметр ReFrames формата : 4 кадры
Режим смешивания : Header stripping
Идентификатор кодека : V_MPEG4/ISO/AVC
Продолжительность : 45 м.
Битрейт : 5200 Кбит/сек
Ширина : 1280 пикс.
Высота : 720 пикс.
Соотношение сторон : 16:9
Частота кадров : 25,000 кадр/сек
Цветовое пространство : YUV
Подвыборка цветности : 4:2:0
Битовая глубина : 8 бит
Тип развёртки : Прогрессивная
Бит/(Пиксели*Кадры) : 0.226
Размер потока : 1,60 Гбайт (85%)
Библиотека кодирования : x264 core 112
Основные цвета : BT.709-5, BT.1361, IEC 61966-2-4, SMPTE RP177
Характеристики трансфера : BT.709-5, BT.1361
Коэффициенты матрицы : BT.709-5, BT.1361, IEC 61966-2-4 709, SMPTE RP177

Аудио #1
Идентификатор : 2
Формат : AC-3
Формат/Информация : Audio Coding 3
Расширение режима : CM (complete main)
Режим смешивания : Header stripping
Идентификатор кодека : A_AC3
Продолжительность : 45 м.
Вид битрейта : Постоянный
Битрейт : 384 Кбит/сек
Канал(ы) : 2 канала(ов)
Расположение каналов : Front: L R
Частота : 48,0 КГц
Битовая глубина : 16 бит
Метод сжатия : С потерями
Размер потока : 124 Мбайт (6%)

Аудио #2
Идентификатор : 3
Формат : AC-3
Формат/Информация : Audio Coding 3
Расширение режима : CM (complete main)
Режим смешивания : Header stripping
Идентификатор кодека : A_AC3
Продолжительность : 45 м.
Вид битрейта : Постоянный
Битрейт : 384 Кбит/сек
Канал(ы) : 2 канала(ов)
Расположение каналов : Front: L R
Частота : 48,0 КГц
Битовая глубина : 16 бит
Метод сжатия : С потерями

















   Похожие торренты   Торрент   Размер 
В этой теме нет новых непрочитанных сообщений. Сокровища Тутанхамона (1-3 серии из 3) / National Geographic. Tut's Treasures: Hidden Secrets (National Geographic) [2017, документальный, познавательный, история, исследование, SATRip] DUB

0 | 0

2.13 ГБ

В этой теме нет новых непрочитанных сообщений. Авто S.O.S. (3 сезон, 1-7 серии из 10) / National Geographic. Car S.O.S. (National Geographic Channels) [2015, документальный, телепередача, реалити-шоу, HDTV 1080i] VO

0 | 3

20.31 ГБ

В этой теме нет новых непрочитанных сообщений. Авто S.O.S. (2 сезон, 1-9 серии из 10) / National Geographic. Car S.O.S. (National Geographic Channels) [2014, документальный, телепередача, реалити-шоу, HDTV 1080i] VO

0 | 2

26.02 ГБ

В этой теме нет новых непрочитанных сообщений. Авто S.O.S. (2 сезон, 1,4-7 серии из 10) / National Geographic. Car S.O.S. (National Geographic Channels) [2014, документальный, телепередача, реалити-шоу, HDTV 1080i] VO

2 | 0

14.5 ГБ

В этой теме нет новых непрочитанных сообщений. Авто S.O.S. (2 сезон, 1,4-8 серии из 10) / National Geographic. Car S.O.S. (National Geographic Channels) [2014, документальный, телепередача, реалити-шоу, HDTV 1080i] VO

2 | 0

17.37 ГБ

В этой теме нет новых непрочитанных сообщений. Nat Geo Wild: Самые странные в мире: необычные фермы / World's Weirdest. Funny Farms (2013) HDTVRip-AVC | P1

0 | 0

825.37 МБ

В этой теме нет новых непрочитанных сообщений. Nat Geo Wild: Самые странные в мире: ползучие целители / World's Weirdest. Creepy Cures (2013) HDTVRip-AVC | P1

0 | 0

1005.78 МБ




Вы не можете начинать темы
Вы не можете отвечать на сообщения
Вы не можете редактировать свои сообщения
Вы не можете удалять свои сообщения
Вы не можете добавлять вложения

Перейти:  
Контактная информация: rstracker[пёсик]yandex.ru
 Вход
ppkBB3cker v.2 © 2008-2014 @ PPK
[ Time : 0.019s | 15 Queries | GZIP : Off ]

cron