img image001 image001 image001 image001 image001 image001 image001 image001 image001 image001 image001 image001 image001 image001 image001

Planets Sun Sun Sun
Статистика раздачи
Автор: Снежана | Размер: 13.13 ГБ | Добавлен: 25 июл 2013
Раздают: 1    Качают: 163
Скачать торрент
Скачать торрент
Описание торрента

СообщениеДобавлено: 25 июл 2013 

National Geographic: Гид путешественника по планетам / National Geographic: A Traveler's Guide to the Planets (2010)BDRip-AVC 720p



Информация о фильме
Название: National Geographic: Гид путешественника по планетам
Оригинальное название: National Geographic: A Traveler's Guide to the Planets
Год выхода: 2010
Жанр: документальный, научно-популярный
Режиссер: National Geographic

О фильме:
Это удивительное и захватывающее путешествие по планетам солнечной системы. Но оно для отважных и сильных духом: шутка ли, нашему путешественнику придется выдерживать колоссальные перепады температур - от + 840 градусов на солнечной стороне до - 273 градусов в тени, сгибаться под силой тяжести и парить в невесомости, защищаться от кислотного смога и жесткого космического излучения. Но, поверьте, путешествие того стоит! В каждом из эпизодов вы увидите подробнейшие изображения каждой планеты, уникальные съемки которых стали возможны благодаря самым современным телескопам с высоко-точной оптикой. А современная техника мультипликации позволит вам приблизиться к далеким мирам и лично испытать все ощущения от встречи с нашими соседними планетами во время этого удивительного космического путешествия.

Описание серий:
Серия 1: Меркурий и Венера
Температура на крошечном Меркурии может достигать 800 градусов по Фаренгейту. А на Венере, на поверхности плавится свинец при давлении, способном расплющить человека за доли секунды.

Серия 2: Марс
Названный в честь римского бога войны-Марс, Красная планета пленила землян на протяжении тысяч лет. Мы увидим гигантские горы и пролетим над огромными каньонами, единственное что будет мешать сделать это-отсутствие кислорода для дыхания.

Серия 3: Юпитер
Нырнув под облака мы раскрываем тайну странной планеты: он действительно больше похоже на звездный состав. Посмотрите, что сегодня самые большие и лучшие телескопы показали о лунах Юпитера - царствах огня и льда -Ио, где господствует огонь и сера и Европа, где под поверхностью скрывается теплый и соленый океан.

Серия 4: Сатурн
С Земли кольца Сатурна кажутся твердыми, но на самом деле они состоит из кусков льда и камней. Они выглядят зрелищно, но обернитесь вокруг себя и пред вами предстанут-более чем 60 спутников планеты!

Серия 5: Уран и Нептун
Давайте ворвемся в ледяную зону, чтобы изучить тайны двух миров, которые невозможны понять. Уран, ледяной газовый гигант с атмосферой, состоящей из космического коктейля - водорода, гелия и метана, настолько отдален от Солнца, что требуется 84 года, чтобы обернуться вокруг Солнца. А оборот вокруг Солнца Нептуна, яркого синего соседа Урана, занимает вдвое больший срок.

Серия 6: Плутон и другие миры
Плутон находится так далеко от Земли, что нам он видится точкой света в наши мощные телескопы. Находясь в гравитационном танце с его крупнейшим спутником Хароном, он открывает замороженный мир - невидимых рой ледяных миров. Узнайте, зачем люди изучают неизведанные пределы нашей Солнечной окрестности и о чём ученые НАСА будут думать, когда туда доберутся.


Страна: Австралия
Продолжительность: 6 серий от 00:40:00 до 00:44:13
Перевод: Профессиональный (одноголосый)

Файл
Кодек: MPEG4/ISO/AVC
Качество: BDRip 720p
Видео: 1280 x 720 (1.778) at 30.000 fps/Matroska at 7476 Кбит/сек
Звук: AC-3 at 448 Кбит/сек/6 канала(ов), 48,0 КГц

MediaInfo
Формат : Matroska
Общий поток : 7476 Кбит/сек
Дата кодирования : UTC 2011-02-08 00:55:55
Программа кодирования : mkvmerge v3.2.0 ('Beginnings') built on Feb 12 2010 16:46:17
Библиотека кодирования : libebml v0.7.9 + libmatroska v0.8.1

Видео
Идентификатор : 1
Формат : AVC
Формат/Информация : Advanced Video Codec
Профиль формата : High@L4.1
Параметр CABAC формата : Да
Параметр ReFrames формата : 5 кадры
Идентификатор кодека : V_MPEG4/ISO/AVC
Продолжительность : 42 м.
Битрейт : 6544 Кбит/сек
Ширина : 1280 пикс.
Высота : 720 пикс.
Соотношение сторон : 16:9
Частота кадров : 30,000 кадр/сек
Частота кадров в оригинале : 29,970 кадр/сек
Цветовое пространство : YUV
Подвыборка цветности : 4:2:0
Битовая глубина : 8 бит
Тип развёртки : Прогрессивная
Бит/(Пиксели*Кадры) : 0.237
Размер потока : 1,89 Гбайт (86%)
Библиотека кодирования : x264 core 104 r1683 62997d6

Аудио #1
Идентификатор : 2
Формат : AC-3
Формат/Информация : Audio Coding 3
Расширение режима : CM (complete main)
Идентификатор кодека : A_AC3
Продолжительность : 42 м.
Вид битрейта : Постоянный
Битрейт : 448 Кбит/сек
Канал(ы) : 6 канала(ов)
Расположение каналов : Front: L C R, Side: L R, LFE
Частота : 48,0 КГц
Битовая глубина : 16 бит
Метод сжатия : С потерями
Размер потока : 135 Мбайт (6%)

Аудио #2
Идентификатор : 3
Формат : AC-3
Формат/Информация : Audio Coding 3
Расширение режима : CM (complete main)
Идентификатор кодека : A_AC3
Продолжительность : 42 м.
Вид битрейта : Постоянный
Битрейт : 448 Кбит/сек
Канал(ы) : 6 канала(ов)
Расположение каналов : Front: L C R, Side: L R, LFE
Частота : 48,0 КГц
Битовая глубина : 16 бит
Метод сжатия : С потерями
Размер потока : 135 Мбайт (6%)




















   Похожие торренты   Торрент   Размер 
В этой теме нет новых непрочитанных сообщений. National Geographic: Путешествие по планетам / National Geographic: A Traveler's Guide to the Planets (2011) HDTVRip

20 | 9

1.69 ГБ

В этой теме нет новых непрочитанных сообщений. National Geographic: Путешествие по планетам / A Traveler's Guide to the Planets [01-06 из 06] (2010) HDRip | P1

322 | 163

4.24 ГБ

В этой теме нет новых непрочитанных сообщений. National Geographic : Путешествие по планетам : Юпитер / A traveler's guide to the planets : Jupiter (2010) SATRip

7 | 10

571.57 МБ

В этой теме нет новых непрочитанных сообщений. National Geographic : Путешествие по планетам : Марс / A traveler's guide to the planets : Mars (2010) SATRip

44 | 3

571.48 МБ

В этой теме нет новых непрочитанных сообщений. National Geographic : Путешествие по планетам : Сатурн / A traveler's guide to the planets : Saturn (2010) SATRip

2 | 3

571.22 МБ

В этой теме нет новых непрочитанных сообщений. National Geographic : Путешествие по планетам : К Плутону и дальше / A traveler's guide to the planets : Pluto & Beyond (2010) SATRip

2 | 1

571.49 МБ

В этой теме нет новых непрочитанных сообщений. National Geographic : Путешествие по планетам : Венера и Меркурий / A traveler's guide to the planets : Venus & Mercury (2010) SATRip

58 | 2

571.38 МБ




Вы не можете начинать темы
Вы не можете отвечать на сообщения
Вы не можете редактировать свои сообщения
Вы не можете удалять свои сообщения
Вы не можете добавлять вложения

Перейти:  
Для Мосгорсуда, Роскомнадзора и рекламодателей: mosgorsud-torrent[собачка]yandex.ru
 Вход
ppkBB3cker v.2 © 2008-2014 @ PPK
[ Time : 0.058s | 14 Queries | GZIP : Off ]

Торрент трекер RUTOR.IN, Не можете зайти на rutor.org? Какой новый адрес рутор? Какое зеркало рутор? Не работает rutor.org и зеркала? Тогда наш торрент специально для вас. Rutor.in неофициальное зеркало rutor. В случае если у Вас заблокирован rutor или вдруг Вы не можете на него зайти, то Вы без труда сможете скачать бесплатно и без рекламы последние новинки кино, игр, сериалов и прочего у нас, на Rutor.in. Не нужно использовать прокси, чтобы зайти на рутор, достаточно воспользоваться нашим ресурсом. Все новые фильмы, игры, сериалы, книги и музыка за 2013 и 2014 годы через торрент бесплатно. Скачивайте фильмы в хорошем качестве, игры для пк, xbox, playstation без регистрации. У нас вы найдете новые Зарубежные сериалы и Русские сериалы 2013, 2014, 2015 годов. Оставайтесь с нами, качайте любимые фильмы, игры, сериалы, книги и музыку.