img image001 image001 image001 image001 image001 image001 image001 image001 image001 image001 image001 image001 image001 image001 image001

Planets Sun Sun Sun
Статистика раздачи
Автор: Снежана | Размер: 3.42 ГБ | Добавлен: 25 июл 2013
Раздают: 4    Качают: 16
Скачать торрент
Скачать торрент
Описание торрента

СообщениеДобавлено: 25 июл 2013 

#77


Информация о фильме
Название: Discovery: За гранью
Оригинальное название: Discovery: One Step Beyond
Год выхода: 2004
Жанр: Документальный, Научно-популярный

О фильме:
Программы цикла "За гранью" - это комбинация передовой науки с революционными технологиями создания фильмов. Сложные научные вопросы преподносятся зрителю в информативной и развлекательной форме. У каждого эпизода простое название, но за каждым словом скрывается необычная нам наука.

Список серий :
01 серия - Мир страха
В мире много бесстрашных людей: одни плавают в море, кишащем акулами, другие сгибают горлом железные прутья, третьи изучают современных вампиров.

02 серия - Боль
Ученые не боятся экспериментов, они придумывают, как избавить стадо коров от страха, а человека - от мигрени, как восстановить спинной мозг, и как использовать при лечении ран личинки насекомых.

03 серия - Необъяснимое
Наука не стоит на месте: современные ученые пришли к выводу, что каждая клетка человека имеет память, - в программе рассказывается о женщине, чья пересаженная печень диктует ей странные воспоминания и желания.

04 серия - Тайны
Нынешние инженеры научились строить земляные дома, пригодные для жизни на Луне, а медики смогли воссоздать копию зародыша, которого можно потрогать; пытаются выяснить, каким образом маленькие рыбки могут лечить кожные болезни; и смогли вывести мышь без использования мужских клеток. Секретные агенты научились передавать информацию с простым рукопожатием, а в полиции США работает женщина, которая раскрывает преступления с помощью своих снов и видений.

05 серия - Наше тело
Медицина XXI века все еще продолжает открывать новые возможности человеческого тела. Иногда она в состоянии разгадать загадку, которую задает ей природа, а иногда совсем бессильна помочь человеку. Почему кожа женщины вдруг стала серого цвета?

06 серия - Суперлюди
Как пловец может находиться под водой несколько минут без кислорода? Что позволяет монаху из Шаолиня не чувствовать боль? Отчего лицо одного мужчины покрыто волосами, а кожа другого растягивается на десять сантиметров от тела? Каким образом имплант, вживленный в спину женщины, заставляет ее чувствовать оргазм? На все эти вопросы медики уже нашли ответ. Но у природы в запасе еще масса загадок...

07 серия - Иная жизнь
Всем известны истории о людях, сумевших выжить в экстремальных ситуациях, но для некоторых такие ситуации - каждодневная рутина. Например, где-то живет женщина, которая комфортно себя ощущает в холодной (+2С) воде. И мужчина, играющий с электричеством. И юноша, помещающийся в небольшую коробку.

08 серия - Выживание
Этот эпизод о пожилой дама, умиравшей три раза. И о старике, чей мир постоянно вращается. И они не выживают, они просто живут.

09 серия - Игры разума
Современная наука еще не полностью изучила механизм работы человеческого разума. Неизвестно, разберемся ли мы когда-нибудь в том, что заставляет некоторых людей втыкать в себя иголки, глотать колющие предметы и бегать на дистанции в тысячи километров.

10 серия - Сверхъестественное
Отчего отказывает кратковременная память, и как ее восстановить, почему одна женщина видит мертвых, а другая понимает язык животных.


Страна: Австралия, США
Студия: Discovery
Продолжительность: 10 серий ~ 00:23:15
Перевод: Профессиональный (одноголосый)

Файл
Кодек: DivX 5
Качество: DVDRip
Видео: 704 x 400 (1.760) at 25.000 fps/AVI at ~ 2106 Кбит/сек
Звук: AC-3 at 192 Кбит/сек/2 канала(ов), 48,0 КГц

MediaInfo
Видео
Идентификатор : 0
Формат : MPEG-4 Visual
Параметр BVOP формата : 1
Параметр QPel формата : Нет
Параметр GMC формата : Без точки перехода
Параметр матрицы формата : Default (H.263)
Режим смешивания : Сжатый битовый поток
Идентификатор кодека : DX50
Идентификатор кодека/Подсказка : DivX 5
Продолжительность : 23 м.
Битрейт : 1714 Кбит/сек
Ширина : 704 пикс.
Высота : 400 пикс.
Соотношение сторон : 16:9
Частота кадров : 25,000 кадр/сек
Цветовое пространство : YUV
Подвыборка цветности : 4:2:0
Битовая глубина : 8 бит
Тип развёртки : Прогрессивная
Метод сжатия : С потерями
Бит/(Пиксели*Кадры) : 0.243
Размер потока : 285 Мбайт (81%)
Библиотека кодирования : DivX 6.8.3-6.8.4 (UTC 2008-06-07)

Аудио #1
Идентификатор : 1
Формат : AC-3
Формат/Информация : Audio Coding 3
Профиль формата : Dolby Digital
Расширение режима : CM (complete main)
Идентификатор кодека : 2000
Продолжительность : 23 м.
Вид битрейта : Постоянный
Битрейт : 192 Кбит/сек
Канал(ы) : 2 канала(ов)
Расположение каналов : Front: L R
Частота : 48,0 КГц
Битовая глубина : 16 бит
Метод сжатия : С потерями
Размер потока : 31,9 Мбайт (9%)
Выравнивание : Соединение по промежуткам
Продолжительность промежутка : 96 мс. (2,40 видеокадров)
Время предзагрузки промежутка : 96 ms
Язык : Russian

Аудио #2
Идентификатор : 2
Формат : AC-3
Формат/Информация : Audio Coding 3
Профиль формата : Dolby Digital
Расширение режима : CM (complete main)
Идентификатор кодека : 2000
Продолжительность : 23 м.
Вид битрейта : Постоянный
Битрейт : 192 Кбит/сек
Канал(ы) : 2 канала(ов)
Расположение каналов : Front: L R
Частота : 48,0 КГц
Битовая глубина : 16 бит
Метод сжатия : С потерями
Размер потока : 31,9 Мбайт (9%)
Выравнивание : Соединение по промежуткам
Продолжительность промежутка : 96 мс. (2,40 видеокадров)
Время предзагрузки промежутка : 96 ms
Язык : English



















   Похожие торренты   Торрент   Размер 
В этой теме нет новых непрочитанных сообщений. Discovery: Экстремальные машины / Discovery: Extreme Machines [01-12 из 12] (1996-2004) DVDRip

36 | 17

8.21 ГБ

В этой теме нет новых непрочитанных сообщений. Discovery: Сценарий катастрофы / Discovery: Blueprint for Disaster [s01] (2004) DVDRip

0 | 2

4.01 ГБ

В этой теме нет новых непрочитанных сообщений. Discovery: Идеальный путеводитель. Змеи / Discovery: Ultimate Guide. Snakes (2004) DVDRip-AVC от Тorrent-Хzona

4 | 2

694.59 МБ

В этой теме нет новых непрочитанных сообщений. Discovery. Настоящие ужасы с Энтони Хэдом: Демоны / Discovery. True Horror with Anthony Head: Demons (2004) DVDRip от Alekxandr48

3 | 8

701.24 МБ

В этой теме нет новых непрочитанных сообщений. Discovery: Туристические жемчужины Диск 1 / Discovery HD Getaways (2004) BDRip 720 от denis 100

63 | 4

4.47 ГБ

В этой теме нет новых непрочитанных сообщений. Discovery: Если б не было Луны / Discovery: If we had no moon (2004) TVRip

8 | 1

382.24 МБ

В этой теме нет новых непрочитанных сообщений. Discovery: Туристические жемчужины / Discovery: HD Getaways [01-8 из 8] (2004) HDRip от R.G.RealMT | Р1

3 | 2

3.16 ГБ




Вы не можете начинать темы
Вы не можете отвечать на сообщения
Вы не можете редактировать свои сообщения
Вы не можете удалять свои сообщения
Вы не можете добавлять вложения

Перейти:  
Для Мосгорсуда, Роскомнадзора и рекламодателей: mosgorsud-torrent[собачка]yandex.ru
 Вход
ppkBB3cker v.2 © 2008-2014 @ PPK
[ Time : 0.037s | 14 Queries | GZIP : On ]

Торрент трекер RUTOR.IN, Не можете зайти на rutor.org? Какой новый адрес рутор? Какое зеркало рутор? Не работает rutor.org и зеркала? Тогда наш торрент специально для вас. Rutor.in неофициальное зеркало rutor. В случае если у Вас заблокирован rutor или вдруг Вы не можете на него зайти, то Вы без труда сможете скачать бесплатно и без рекламы последние новинки кино, игр, сериалов и прочего у нас, на Rutor.in. Не нужно использовать прокси, чтобы зайти на рутор, достаточно воспользоваться нашим ресурсом. Все новые фильмы, игры, сериалы, книги и музыка за 2013 и 2014 годы через торрент бесплатно. Скачивайте фильмы в хорошем качестве, игры для пк, xbox, playstation без регистрации. У нас вы найдете новые Зарубежные сериалы и Русские сериалы 2013, 2014, 2015 годов. Оставайтесь с нами, качайте любимые фильмы, игры, сериалы, книги и музыку.