img image001 image001 image001 image001 image001 image001 image001 image001 image001 image001 image001 image001 image001 image001 image001

Planets Sun Sun Sun
Статистика раздачи
Автор: Снежана | Размер: 550.38 МБ | Добавлен: 24 июл 2013
Раздают: 10    Качают: 4
Скачать торрент
Скачать торрент
Описание торрента

СообщениеДобавлено: 24 июл 2013 



Информация о фильме
Название: National Geographic: Корабль - призрак. Воскрешение
Оригинальное название: National Geographic: Ghost Ship. Resurrection
Год выхода: 2011
Жанр: Документальный
Режиссер: Мальколм Дикселиус

О фильме:
Холодные воды Балтийского моря скрывают останки древнего затонувшего судна. Никто не знает почему оно затонуло, и что случилось с командой. Для изучения этого идеально сохранившегося корабля снаряжается экспедиция. Она станет новым словом в морской археологии. Цель ученых: оживить это давно забытое судно.
Страна: США
Студия: National Geographic
Продолжительность: 00:45:16
Перевод: Профессиональное (одноголосое)

Файл
Кодек: XVID
Качество: SATRip
Видео: 704 x 400 (1.760) at 25.000 fps/AVI at 1699 Кбит/сек
Звук: MPEG Audio at 128 Кбит/сек/2 канала(ов), 48,0 КГц

MediaInfo
Видео
Идентификатор : 0
Формат : MPEG-4 Visual
Профиль формата : Advanced Simple@L5
Параметр BVOP формата : 1
Параметр QPel формата : Нет
Параметр GMC формата : Без точки перехода
Параметр матрицы формата : Default (H.263)
Идентификатор кодека : XVID
Идентификатор кодека/Подсказка : XviD
Продолжительность : 45 м.
Битрейт : 1562 Кбит/сек
Ширина : 704 пикс.
Высота : 400 пикс.
Соотношение сторон : 16:9
Частота кадров : 25,000 кадр/сек
Цветовое пространство : YUV
Подвыборка цветности : 4:2:0
Битовая глубина : 8 бит
Тип развёртки : Прогрессивная
Метод сжатия : С потерями
Бит/(Пиксели*Кадры) : 0.222
Размер потока : 506 Мбайт (92%)
Библиотека кодирования : XviD 1.2.1 (UTC 2008-12-04)

Аудио
Идентификатор : 1
Формат : MPEG Audio
Версия формата : Version 1
Профиль формата : Layer 3
Идентификатор кодека : 55
Идентификатор кодека/Подсказка : MP3
Продолжительность : 45 м.
Вид битрейта : Постоянный
Битрейт : 128 Кбит/сек
Канал(ы) : 2 канала(ов)
Частота : 48,0 КГц
Метод сжатия : С потерями
Размер потока : 41,5 Мбайт (8%)
Выравнивание : Соединение по промежуткам
Продолжительность промежутка : 40 мс. (1,00 видеокадр)
Время предзагрузки промежутка : 504 ms
Библиотека кодирования : LAME3.98r
Настройки программы : -m s -V 4 -q 2 -lowpass 17 -b 128











   Похожие торренты   Торрент   Размер 
В этой теме нет новых непрочитанных сообщений. Сокровища Тутанхамона (1-3 серии из 3) / National Geographic. Tut's Treasures: Hidden Secrets (National Geographic) [2017, документальный, познавательный, история, исследование, SATRip] DUB

0 | 0

2.13 ГБ

В этой теме нет новых непрочитанных сообщений. Авто S.O.S. (2 сезон, 1,4-8 серии из 10) / National Geographic. Car S.O.S. (National Geographic Channels) [2014, документальный, телепередача, реалити-шоу, HDTV 1080i] VO

2 | 0

17.37 ГБ

В этой теме нет новых непрочитанных сообщений. Авто S.O.S. (3 сезон, 1-7 серии из 10) / National Geographic. Car S.O.S. (National Geographic Channels) [2015, документальный, телепередача, реалити-шоу, HDTV 1080i] VO

0 | 3

20.31 ГБ

В этой теме нет новых непрочитанных сообщений. Авто S.O.S. (2 сезон, 1-9 серии из 10) / National Geographic. Car S.O.S. (National Geographic Channels) [2014, документальный, телепередача, реалити-шоу, HDTV 1080i] VO

0 | 2

26.02 ГБ

В этой теме нет новых непрочитанных сообщений. Авто S.O.S. (2 сезон, 1,4-7 серии из 10) / National Geographic. Car S.O.S. (National Geographic Channels) [2014, документальный, телепередача, реалити-шоу, HDTV 1080i] VO

2 | 0

14.5 ГБ

В этой теме нет новых непрочитанных сообщений. Глиняная (Призрачная) армия Китая / National Geographic. China's Ghost Army (Стивен Тэллей) [2010, документальный, научно-познавательный, история, HDTVRip] DUB

4 | 0

677.33 МБ

В этой теме нет новых непрочитанных сообщений. National Geographic: Возмездие / Avenging Evil (2018) SATRip | P1

0 | 2

625.1 МБ




Вы не можете начинать темы
Вы не можете отвечать на сообщения
Вы не можете редактировать свои сообщения
Вы не можете удалять свои сообщения
Вы не можете добавлять вложения

Перейти:  
Контактная информация: rstracker[пёсик]yandex.ru
 Вход
ppkBB3cker v.2 © 2008-2014 @ PPK
[ Time : 0.024s | 18 Queries | GZIP : Off ]

cron