img image001 image001 image001 image001 image001 image001 image001 image001 image001 image001 image001 image001 image001 image001 image001

Planets Sun Sun Sun
Статистика раздачи
Автор: Снежана | Размер: 5.01 ГБ | Добавлен: 25 июл 2013
Раздают: 32    Качают: 7
Скачать торрент
Скачать торрент
Описание торрента

СообщениеДобавлено: 25 июл 2013 



Информация о фильме
Название: BBC: Первая жизнь
Оригинальное название: BBC: David Attenborough's First Life
Год выхода: 2010
Жанр: Документальный
Режиссер: Мартин Уильямс
В ролях: Дэвид Аттенборо, Хэйзел Бартон, Бернард Деньян, Филип Донохью, Гай Нарбонне, Жан-Бернар Карон, Джастин Маршалл

О фильме:
От побережья Ньюфаундленда, окутанного туманом, до пустынь Северной Америки и тропических джунглей Квинсленда Дэвид Аттенбро в фильме "Первая жизнь" ищет доказательство в окаменелостях и животных невероятного периода истории Земли полмиллиарда лет назад, когда животные впервые появились в океанах. От первых глаз, которые видели, до первых хищников, которые убивали, и первых конечностей, которые шагали по суше, это были создания, которые развили черты и приспособления, позволяющие всем животным, даже нам, выживать в наши дни. Это история, которую можно рассказать только сейчас, поскольку найденные за последние несколько лет ошеломляющие окаменелости по всему миру изменили наше понимание самых первых форм жизни, а современная технология позволяет нам воссоздать первых животных и их окружение с помощью фотореалистичного компьютерного изображения.

Список серий
1 серия - Зарождение
Первая серия посвящена появлению самых первых живых существ - бактерий и последующей их эволюции, породившей первых же многоклеточных животных. В этой же серии рассказывается о странной группе древних организмов - фрактальных животных, не оставивших по себе потомков среди современной фауны, а также о том, как среди этих причудливых созданий появились существа, ставшие прообразом всех современных живых существ.

2 серия - Завоевание
Вторая серия рассказывает о времени Кембрийского взрыва разнообразия жизни, когда эволюция всего живого происходила удивительно быстро. Это время появления предков всех групп современных животных. Также в этой серии подробный рассказ об огромной группе вымерших членистоногих - трилобитах и о первых животных, выбравшихся на сушу и освоивших полёт.

Страна: Великобритания
Студия: An Atlantic Production, BBC, Discovery Channel, Australian Broadcasting Corporation
Продолжительность: 2 серии ~ 00:59:00
Перевод: Авторский (Владимир Курдов)

Файл
Кодек: MPEG4/ISO/AVC
Качество: BDRip 720p
Видео: 1280 x 720 (1.778) at 25.000 fps/Matroska at 5883 Кбит/сек
Звук: AC-3 at 640 Кбит/сек/2 канала(ов), 48,0 КГц

MediaInfo
Видео
Идентификатор : 1
Формат : AVC
Формат/Информация : Advanced Video Codec
Профиль формата : High@L4.1
Параметр CABAC формата : Да
Параметр ReFrames формата : 4 кадры
Параметры GOP формата : M=1, N=26
Идентификатор кодека : V_MPEG4/ISO/AVC
Продолжительность : 58 м.
Битрейт : 4600 Кбит/сек
Ширина : 1280 пикс.
Высота : 720 пикс.
Соотношение сторон : 16:9
Частота кадров : 25,000 кадр/сек
Цветовое пространство : YUV
Подвыборка цветности : 4:2:0
Битовая глубина : 8 бит
Тип развёртки : Прогрессивная
Бит/(Пиксели*Кадры) : 0.200
Размер потока : 1,85 Гбайт (76%)
Заголовок : David Attenborough's First Life. Episode 1. Arrival
Библиотека кодирования : x264 core 115 r1995 c1e60b9

Аудио #1
Идентификатор : 2
Формат : AC-3
Формат/Информация : Audio Coding 3
Расширение режима : CM (complete main)
Идентификатор кодека : A_AC3
Продолжительность : 58 м.
Вид битрейта : Постоянный
Битрейт : 640 Кбит/сек
Канал(ы) : 2 канала(ов)
Расположение каналов : Front: L R
Частота : 48,0 КГц
Битовая глубина : 16 бит
Метод сжатия : С потерями
Размер потока : 270 Мбайт (11%)
Заголовок : Russian
Язык : Russian

Аудио #2
Идентификатор : 3
Формат : AC-3
Формат/Информация : Audio Coding 3
Расширение режима : CM (complete main)
Идентификатор кодека : A_AC3
Продолжительность : 58 м.
Вид битрейта : Постоянный
Битрейт : 640 Кбит/сек
Канал(ы) : 2 канала(ов)
Расположение каналов : Front: L R
Частота : 48,0 КГц
Битовая глубина : 16 бит
Метод сжатия : С потерями
Размер потока : 270 Мбайт (11%)
Заголовок : English
Язык : English

Текст #1
Идентификатор : 4
Формат : UTF-8
Идентификатор кодека : S_TEXT/UTF8
Идентификатор кодека/Информация : UTF-8 Plain Text
Заголовок : Russian
Язык : Russian

Текст #2
Идентификатор : 5
Формат : UTF-8
Идентификатор кодека : S_TEXT/UTF8
Идентификатор кодека/Информация : UTF-8 Plain Text
Заголовок : English
Язык : English



















   Похожие торренты   Торрент   Размер 
В этой теме нет новых непрочитанных сообщений. BBC: Истоки жизни / Первая жизнь / BBC: David Attenborough's First Life (2010) DVDRip от -=HD-NET=-

325 | 7

1.37 ГБ

В этой теме нет новых непрочитанных сообщений. BBC: Первая жизнь. Зарождение [2 серии из 2] / BBC: David Attenborough's First Life. Arrival (2010) HDRip от NovaLan

10 | 2

2.15 ГБ

В этой теме нет новых непрочитанных сообщений. BBC: Первая жизнь. Зарождение [1 серия из 2] / BBC: David Attenborough's First Life. Arrival (2010) HDRip от NovaLan

1 | 2

1.08 ГБ

В этой теме нет новых непрочитанных сообщений. Жизнь Дэвида Гейла / The Life of David Gale (2003) BDRip 720p от Temperest

574 | 47

7.93 ГБ

В этой теме нет новых непрочитанных сообщений. BBC: Живой свет с Дэвидом Аттенборо. Биолюминесценция / David Attenborough’s Light on Earth (Life That Gl (2016) HDTVRip от Kaztorrents | P1

81 | 0

672.01 МБ

В этой теме нет новых непрочитанных сообщений. Жизнь Дэвида Гейла / The Life of David Gale (2003) HDTV 720p от PskovLine

27 | 3

6.97 ГБ

В этой теме нет новых непрочитанных сообщений. Покорение неба 3D (Дэвид Аттенборо) / Conquest of the Skies 3D (David Attenborough) [01-02 из 03] (2014) BDRip 720p | P

26 | 1

5.48 ГБ




Вы не можете начинать темы
Вы не можете отвечать на сообщения
Вы не можете редактировать свои сообщения
Вы не можете удалять свои сообщения
Вы не можете добавлять вложения

Перейти:  
Для Мосгорсуда, Роскомнадзора и рекламодателей: mosgorsud-torrent[собачка]yandex.ru
 Вход
ppkBB3cker v.2 © 2008-2014 @ PPK
[ Time : 0.059s | 14 Queries | GZIP : Off ]

Торрент трекер RUTOR.IN, Не можете зайти на rutor.org? Какой новый адрес рутор? Какое зеркало рутор? Не работает rutor.org и зеркала? Тогда наш торрент специально для вас. Rutor.in неофициальное зеркало rutor. В случае если у Вас заблокирован rutor или вдруг Вы не можете на него зайти, то Вы без труда сможете скачать бесплатно и без рекламы последние новинки кино, игр, сериалов и прочего у нас, на Rutor.in. Не нужно использовать прокси, чтобы зайти на рутор, достаточно воспользоваться нашим ресурсом. Все новые фильмы, игры, сериалы, книги и музыка за 2013 и 2014 годы через торрент бесплатно. Скачивайте фильмы в хорошем качестве, игры для пк, xbox, playstation без регистрации. У нас вы найдете новые Зарубежные сериалы и Русские сериалы 2013, 2014, 2015 годов. Оставайтесь с нами, качайте любимые фильмы, игры, сериалы, книги и музыку.