img image001 image001 image001 image001 image001 image001 image001 image001 image001 image001 image001 image001 image001 image001 image001

Planets Sun Sun Sun
Статистика раздачи
Автор: Снежана | Размер: 239.18 МБ | Добавлен: 25 июл 2013
Раздают: 35    Качают: 5
Скачать торрент
Скачать торрент
Описание торрента

СообщениеДобавлено: 25 июл 2013 

Энергия из вакуума. Часть 5 - Скрытая электродинамика и последний секрет свободной энергии / Energy from the vacuum. Part 5 - Hidden Electrodynamics and final secret of free energy (2008) DVDRip



Язык: Русский
Русское название: Энергия из вакуума. Часть 5 - Скрытая электродинамика и последний секрет свободной энергии
Оригинальное название: Energy from the vacuum. Part 5 - Hidden Electrodynamics and final secret of free energy
Режиссер / Телекомпания: Энтони Дж. Креддок
Год выпуска: 2008
Жанр: Документальный

Описание:
В современной физике существуют общепринятые, устоявшиеся эффекты. И первое доказательство существования энергии вакуума основано на них, с ней можно не только взаимодействовать, часть ее можно извлечь. Это установлено экспериментально. Одним из таких эффектов является эффект Казимира. Энергия уже есть, ее можно извлечь из вакуума, а механизм для этого уже был создан самой природой, нам ничего не нужно придумывать заново.
Я сохраняю чувство юмора, я иногда не могу сдержать смех, когда эти ученные начинают говорить о вечном движении и тому подобном. Потому что самым вопиющим образом закон сохранения энергии нарушается в книгах, выпускаемых кафедрами электротехники. И они даже не знают об этом! Они даже не задаются этим вопросом.
Если департамент энергетики серьезно подойдет к инновационным исследованиям, они могут извлечь энергию из вакуума в какой-либо из национальных лабораторий, но на самом деле ни одна из них этого не сделает. Это последнее, чем бы они хотели заниматься. Они будут заниматься термоядерным синтезом, топливными элементами, сжиганием каменного угля, утилизацией отходов и подобными вещами. Последняя вещь, чем они станут заниматься, это исследованиями, которые изменят электротехнику. Мы до сих пор используем модель, которой уже сто с лишним лет, которая уже давно устарела, но тем не менее, ее продолжают защищать вместо того, чтобы изменить ее, как и следует поступить ученым, а не критиковать эксперименты, как произошло с холодным синтезом, не отрицать их и не продолжать вести дела по старинке, потому что однажды мы можем обанкротить нацию, потому что все, что им нужно, это стоимость энергии.
Мне повезло работать с независимыми изобретателями, у которых получалось собирать рабочие устройства. Флойд Свит, Говард Джонсон, Фрэнк Голден - люди такого склада. Я работал с изобретателями, у которых на самом деле были рабочие модели, они проводили лабораторные эксперименты с этими устройствами, и они работали.
Сегодня они всех загоняют под пресс и заставляют стереотипно мыслить. Ученые вынуждены вести конкурентную борьбу за деньги, когда учатся в аспирантуре, участвуют в программах и пишут докторские работы. Мы говорили о пакетах финансируемых сверху программ, вы не можете выбрать область исследования, за вас это уже сделали. Факультетские кафедры электротехники или физики в ведущем университете не садятся и не обсуждают, что бы они хотели исследовать. Они рассматривают то, что можно получить, какие-то финансируемые проекты, и то, что им приказывают сделать. А потом, может быть, что-то и остается на то, что бы им ХОТЕЛОСЬ делать. То, что сейчас происходит, на самом деле угнетает разработку инноваций.
Том Бирден.

Релиз:

Участники: Том Бирден, Дэвид Клементс, Кен Мур

Продолжительность: 01:17:20

Перевод: Одноголосый закадровый, профессиональный

Видеокодек: MPEG-4 AVC/H.264
Битрейт видео: ~359 Kbps
Размер кадра: 852*480 (16:9)
Качество видео: DVDRip
Аудиокодек: MP3
Битрейт аудио: 64.0 Kbps

Format : AVI
Format/Info : Audio Video Interleave
File size : 239 MiB
Duration : 1h 17mn
Overall bit rate : 432 Kbps
Writing application : VirtualDubMod 1.5.10.2 (build

2542/release)
Writing library : VirtualDubMod build 2542/release

Video
ID : 0
Format : AVC
Format/Info : Advanced Video Codec
Format profile : High@L3.0
Format settings, CABAC : Yes
Format settings, ReFrames : 3 frames
Codec ID : H264
Duration : 1h 17mn
Bit rate : 359 Kbps
Width : 852 pixels
Height : 480 pixels
Display aspect ratio : 16:9
Frame rate : 23.976 fps
Original frame rate : 25.000 fps
Color space : YUV
Chroma subsampling : 4:2:0
Bit depth : 8 bits
Scan type : Progressive
Bits/(Pixel*Frame) : 0.037
Stream size : 199 MiB (83%)
Writing library : x264 core 96 r1613kMod 81e75e9
Encoding settings : cabac=1 / ref=3 / deblock=1:0:0 /

analyse=0x3:0x13 / me=umh / subme=7 / psy=1 / psy_rd=1.00:0.00 / mixed_ref=1

/ me_range=16 / chroma_me=1 / trellis=1 / 8x8dct=1 / cqm=0 / deadzone=21,11 /

fast_pskip=1 / chroma_qp_offset=-2 / threads=3 / sliced_threads=1 / slices=3

/ nr=0 / decimate=1 / interlaced=0 / constrained_intra=0 / bframes=0 /

weightp=2 / keyint=250 / keyint_min=25 / scenecut=40 / intra_refresh=0 /

rc=cqp / mbtree=0 / qp=30 / ip_ratio=1.40 / aq=0

Audio
ID : 1
Format : MPEG Audio
Format version : Version 1
Format profile : Layer 3
Codec ID : 55
Codec ID/Hint : MP3
Duration : 1h 17mn
Bit rate mode : Constant
Bit rate : 64.0 Kbps
Channel(s) : 1 channel
Sampling rate : 48.0 KHz
Compression mode : Lossy
Stream size : 35.4 MiB (15%)
Alignment : Split accross interleaves
Interleave, duration : 42 ms (1.00 video frame)
Interleave, preload duration : 500 ms









Дополнительная информация:
Смотрите также:
Другие «Релизы проекта Заряд»
Научный сериал «Энергия из вакуума»
д/ф «Потерянные секреты Николы Теслы»
д/ф «Генератор Тесла (Грузинский вариант)»
д/ф «Тяжелый Уотергейт - Война против холодного ядерного синтеза»
д/ф «Кто убил электромобиль»



   Похожие торренты   Торрент   Размер 
В этой теме нет новых непрочитанных сообщений. Энергия из вакуума. Часть 6 - Радиантная энергия изнутри / Energy from the vacuum. Part 6 - Inside radiant energy (2009) DVDRip

17 | 2

389.23 МБ

В этой теме нет новых непрочитанных сообщений. Энергия из вакуума. Часть 10 - Магнитный генератор Кромри / Energy from the vacuum. Part 10 - Kromrey Converter (2008) DVDRip

15 | 3

902.9 МБ

В этой теме нет новых непрочитанных сообщений. Энергия из вакуума. Часть 8 - Вызов второму закону термодинамики / Energy from the vacuum. Part 8 - Challenging the 2nd law of thermodynamics (2008) DVDRip

24 | 4

426.36 МБ

В этой теме нет новых непрочитанных сообщений. Энергия из вакуума. Часть 4 - Магнитный двигатель Говарда Джонсона / Energy from the vacuum. Part 4 - Howard Johnson - Magnetic Exchange (2008) DVDRip-AVC

4 | 3

670.32 МБ

В этой теме нет новых непрочитанных сообщений. Энергия из вакуума. Часть 9 - Начало: Мюррей, Свит и антигравитация / Energy from Vacuum. Part 9 - The early years: Moray, Sweet & antigravity (2008) DVDRip

11 | 3

415.06 МБ

В этой теме нет новых непрочитанных сообщений. Энергия из вакуума. Часть 7 - Импульсная технология Теслы / Energy from the vacuum. Part 7 - Tesla's impulse technology (2009) DVDRip

118 | 3

389.15 МБ

В этой теме нет новых непрочитанных сообщений. Энергия из вакуума 3 – Отрицательное сопротивление / Energy from the vacuum. Part 3 - Chung Experiment - Negative resistance (2007) DVDRip

29 | 7

313.05 МБ




Вы не можете начинать темы
Вы не можете отвечать на сообщения
Вы не можете редактировать свои сообщения
Вы не можете удалять свои сообщения
Вы не можете добавлять вложения

Перейти:  
Для Мосгорсуда, Роскомнадзора и рекламодателей: mosgorsud-torrent[собачка]yandex.ru
 Вход
ppkBB3cker v.2 © 2008-2014 @ PPK
[ Time : 0.101s | 14 Queries | GZIP : Off ]

Торрент трекер RUTOR.IN, Не можете зайти на rutor.org? Какой новый адрес рутор? Какое зеркало рутор? Не работает rutor.org и зеркала? Тогда наш торрент специально для вас. Rutor.in неофициальное зеркало rutor. В случае если у Вас заблокирован rutor или вдруг Вы не можете на него зайти, то Вы без труда сможете скачать бесплатно и без рекламы последние новинки кино, игр, сериалов и прочего у нас, на Rutor.in. Не нужно использовать прокси, чтобы зайти на рутор, достаточно воспользоваться нашим ресурсом. Все новые фильмы, игры, сериалы, книги и музыка за 2013 и 2014 годы через торрент бесплатно. Скачивайте фильмы в хорошем качестве, игры для пк, xbox, playstation без регистрации. У нас вы найдете новые Зарубежные сериалы и Русские сериалы 2013, 2014, 2015 годов. Оставайтесь с нами, качайте любимые фильмы, игры, сериалы, книги и музыку.