img image001 image001 image001 image001 image001 image001 image001 image001 image001 image001 image001 image001 image001 image001 image001

Planets Sun Sun Sun
Статистика раздачи
Автор: Снежана | Размер: 1.27 ГБ | Добавлен: 25 июл 2013
Раздают: 8    Качают: 1
Скачать торрент
Скачать торрент
Описание торрента

СообщениеДобавлено: 25 июл 2013 

#77

Информация о фильме
Название: Discovery: Вселенские ураганы
Оригинальное название: Discovery: Alien Storms
Год выхода: 2010
Жанр: Документальный
Режиссер: Люк Эллис, Мэт Хайки

О фильме:
Экстремальная погода является нормой для Солнечной системы. Экстремальные условия на Земле - ничто по сравнению с пылевыми бурями и жестокими ураганами Вселенной.

Страна: США
Студия: Discovery Channel
Продолжительность: 00:43:33
Перевод: Профессиональный (одноголосный)

Файл
Кодек: H264
Качество: DVDRip
Видео: 720 x 400 (1.800) at 29.970 fps/AVI at 4160 Кбит/сек
Звук: MPEG Audio at 320 Кбит/сек/2 канала(ов), 44,1 КГц

MediaInfo
Видео
Идентификатор : 0
Формат : AVC
Формат/Информация : Advanced Video Codec
Профиль формата : Baseline@L3.0
Параметр CABAC формата : Нет
Параметр ReFrames формата : 1 кадр
Идентификатор кодека : H264
Продолжительность : 43 м.
Вид битрейта : Переменный
Битрейт : 3824 Кбит/сек
Максимальный битрейт : 4587 Кбит/сек
Ширина : 720 пикс.
Высота : 400 пикс.
Соотношение сторон : 16:9
Частота кадров : 29,970 кадр/сек
Частота кадров в оригинале : 24,000 кадр/сек
Цветовое пространство : YUV
Подвыборка цветности : 4:2:0
Битовая глубина : 8 бит
Тип развёртки : Прогрессивная
Бит/(Пиксели*Кадры) : 0.443
Размер потока : 1,16 Гбайт (92%)

Аудио
Идентификатор : 1
Формат : MPEG Audio
Версия формата : Version 1
Профиль формата : Layer 3
Режим : Joint stereo
Расширение режима : MS Stereo
Идентификатор кодека : 55
Идентификатор кодека/Подсказка : MP3
Продолжительность : 43 м.
Вид битрейта : Постоянный
Битрейт : 320 Кбит/сек
Канал(ы) : 2 канала(ов)
Частота : 44,1 КГц
Метод сжатия : С потерями
Размер потока : 99,7 Мбайт (8%)
Выравнивание : Соединение по промежуткам
Продолжительность промежутка : 26 мс. (0,78 видеокадр)
Время предзагрузки промежутка : 26 ms
Библиотека кодирования : LAME3.97





   Похожие торренты   Торрент   Размер 
В этой теме нет новых непрочитанных сообщений. Вселенские Ураганы / Alien Storms (2010) SATRip

0 | 2

400.03 МБ

В этой теме нет новых непрочитанных сообщений. Discovery. Встреча с инопланетянами / Discovery. Alien Encounters. The Arrival [01-02 из 02] (2012) SATRip

4 | 2

1.04 ГБ

В этой теме нет новых непрочитанных сообщений. Discovery: Чужая планета / Discovery: Alien Planet (2005) HDRip

25 | 2

749.37 МБ

В этой теме нет новых непрочитанных сообщений. Discovery. Кто подставил Иисуса? / Discovery. Who Framed Jesus? (2010) DVDRip от -=HD-NET=-

62 | 10

1.03 ГБ

В этой теме нет новых непрочитанных сообщений. Discovery: Энергия будущего / Discovery: Powering the Future (2010) HDTVRip 720p

1 | 6

5.52 ГБ

В этой теме нет новых непрочитанных сообщений. Discovery: Скорость жизни / Discovery: Speed of Life [01-03 из 03] (2010) BDRip AVC от DJ_Zum

5 | 2

1.87 ГБ

В этой теме нет новых непрочитанных сообщений. Discovery: Жестокая планета / Discovery: Savage Planet (2010) SATRip от tenow

1 | 3

186.6 МБ




Вы не можете начинать темы
Вы не можете отвечать на сообщения
Вы не можете редактировать свои сообщения
Вы не можете удалять свои сообщения
Вы не можете добавлять вложения

Перейти:  
Для Мосгорсуда, Роскомнадзора и рекламодателей: mosgorsud-torrent[собачка]yandex.ru
 Вход
ppkBB3cker v.2 © 2008-2014 @ PPK
[ Time : 0.031s | 14 Queries | GZIP : Off ]

Торрент трекер RUTOR.IN, Не можете зайти на rutor.org? Какой новый адрес рутор? Какое зеркало рутор? Не работает rutor.org и зеркала? Тогда наш торрент специально для вас. Rutor.in неофициальное зеркало rutor. В случае если у Вас заблокирован rutor или вдруг Вы не можете на него зайти, то Вы без труда сможете скачать бесплатно и без рекламы последние новинки кино, игр, сериалов и прочего у нас, на Rutor.in. Не нужно использовать прокси, чтобы зайти на рутор, достаточно воспользоваться нашим ресурсом. Все новые фильмы, игры, сериалы, книги и музыка за 2013 и 2014 годы через торрент бесплатно. Скачивайте фильмы в хорошем качестве, игры для пк, xbox, playstation без регистрации. У нас вы найдете новые Зарубежные сериалы и Русские сериалы 2013, 2014, 2015 годов. Оставайтесь с нами, качайте любимые фильмы, игры, сериалы, книги и музыку.