img image001 image001 image001 image001 image001 image001 image001 image001 image001 image001 image001 image001 image001 image001 image001

Planets Sun Sun Sun
Статистика раздачи
Автор: Снежана | Размер: 31.56 ГБ | Добавлен: 24 июл 2013
Раздают: 3    Качают: 3
Скачать торрент
Скачать торрент
Описание торрента

СообщениеДобавлено: 24 июл 2013 

#77

Информация о фильме
Название: Дикая природа Скандинавии
Оригинальное название: Wildes Skandinavien / Wild Scandinavia
Год выхода: 2011
Жанр: Документальный
Режиссер: Уве Андерс, Оливер Гётцль, Ян Хафт, Тобиас Меннле

О фильме:

От создателей «Дикой природы России»! Такой Скандинавию Вы ещё не видели! В этом 7-серийном цикле демонстрируются потрясающие съемки суровой необузданной природы дальнего севера. Обрывистые берега и фьорды, ледники, вулканы и первобытные леса до сих пор служат прибежищами для редких растений и животных. От бурых медведей Финляндии до лосей Швеции, от полярных лис Исландии до овцебыков Норвегии, от северных медведей Гренландии до благородных оленей Дании – каждый фильм унесёт Вас в захватывающую дух дикую природу Северной Европы.

Эпизоды: 1 – Дания, 2 – Норвегия, 3 – Швеция, 4 – Исландия, 5 – Финляндия, 6 – Гренландия, 7 – Приключения (как снимался цикл).

Список серий:
Эпизод 1. Daenemark
Эпизод 2. Norwegen
Эпизод 3. Schweden
Эпизод 4. Iceland
Эпизод 5. Finland
Эпизод 6. Greenland
Эпизод 7. The Adventure

Страна: Германия
Студия: Nautilusfilm, NDR Naturfilm Studio Hamburg
Продолжительность: 00:43:00 серия
Перевод: Одноголосый закадровый - В.Курдов
Русские субтитры: есть

Файл
Качество: BDRip 1080p
Формат: MKV
Видео кодек: x264
Аудио кодек: AC3
Видео: x264, 1920x1080p, 25fps, ~14.7Мbps
Аудио: Russian AC3, 6Ch, 48kHz, 320Kbps
Аудио: German AC3, 6Ch, 48kHz, 224Kbps
Субтитры: Русские, немецкие

Код:
Общее
Уникальный идентификатор         : 188792075622800543931940243968180661621 (0x8E0807FACA29AD7DB4E095D8D3A8AD75)
Формат                           : Matroska
Версия формата                   : Version 2
Размер файла                     : 4,10 Гбайт
Продолжительность                : 43 м.
Общий поток                      : 13,5 Мбит/сек
Дата кодирования                 : UTC 2011-09-19 21:10:21
Программа кодирования            : mkvmerge v3.0.0 ('Hang up your Hang-Ups') built on Dec 12 2009 15:20:35
Библиотека кодирования           : libebml v0.7.9 + libmatroska v0.8.1

Видео
Идентификатор                    : 1
Формат                           : AVC
Формат/Информация                : Advanced Video Codec
Профиль формата                  : High@L4.1
Параметр CABAC формата           : Да
Параметр ReFrames формата        : 3 кадра
Идентификатор кодека             : V_MPEG4/ISO/AVC
Продолжительность                : 43 м.
Битрейт                          : 13,0 Мбит/сек
Ширина                           : 1920 пикс.
Высота                           : 1080 пикс.
Соотношение сторон               : 16:9
Частота кадров                   : 25,000 кадр/сек
Цветовое пространство            : YUV
Подвыборка цветности             : 4:2:0
Битовая глубина                  : 8 бит
Тип развёртки                    : Прогрессивная
Бит/(Пиксели*Кадры)              : 0.251
Размер потока                    : 3,85 Гбайт (94%)
Заголовок                        : Wild Scandinavia. Episode 1. Denmark
Библиотека кодирования           : x264 core 116 r2074 2641b9e
Настройки программы              : cabac=1 / ref=4 / deblock=1:-3:-3 / analyse=0x3:0 / me=tesa / subme=11 / psy=1 / psy_rd=1.00:0.00 /
                                   mixed_ref=1 / me_range=16 / chroma_me=1 / trellis=2 / 8x8dct=1 / cqm=0 / deadzone=21,11 /
                                   fast_pskip=0 / chroma_qp_offset=-2 / threads=3 / sliced_threads=0 / nr=0 / decimate=1 / interlaced=0 /
                                   bluray_compat=0 / constrained_intra=0 / bframes=8 / b_pyramid=1 / b_adapt=2 / b_bias=0 / direct=3 /
                                   weightb=1 / open_gop=1 / weightp=2 / keyint=250 / keyint_min=25 / scenecut=40 / intra_refresh=0 /
                                   rc_lookahead=40 / rc=2pass / mbtree=1 / bitrate=13000 / ratetol=1.0 / qcomp=0.60 / qpmin=10 / qpmax=51 /
                                   qpstep=4 / cplxblur=20.0 / qblur=0.5 / vbv_maxrate=50000 / vbv_bufsize=50000 / nal_hrd=none /
                                   ip_ratio=1.40 / aq=1:0.80
Язык                             : Russian

Аудио #1
Идентификатор                    : 2
Формат                           : AC-3
Формат/Информация                : Audio Coding 3
Расширение режима                : CM (complete main)
Идентификатор кодека             : A_AC3
Продолжительность                : 43 м.
Вид битрейта                     : Постоянный
Битрейт                          : 320 Кбит/сек
Каналы                           : 6 каналов
Расположение каналов             : Front: L C R, Side: L R, LFE
Частота                          : 48,0 КГц
Битовая глубина                  : 16 бит
Метод сжатия                     : С потерями
Размер потока                    : 99,1 Мбайт (2%)
Заголовок                        : Russian
Язык                             : Russian

Аудио #2
Идентификатор                    : 3
Формат                           : AC-3
Формат/Информация                : Audio Coding 3
Расширение режима                : CM (complete main)
Идентификатор кодека             : A_AC3
Продолжительность                : 43 м.
Вид битрейта                     : Постоянный
Битрейт                          : 224 Кбит/сек
Каналы                           : 6 каналов
Расположение каналов             : Front: L C R, Side: L R, LFE
Частота                          : 48,0 КГц
Битовая глубина                  : 16 бит
Метод сжатия                     : С потерями
Размер потока                    : 69,4 Мбайт (2%)
Заголовок                        : German
Язык                             : German

Текст #1
Идентификатор                    : 4
Формат                           : UTF-8
Идентификатор кодека             : S_TEXT/UTF8
Заголовок                        : Russian
Язык                             : Russian

Текст #2
Идентификатор                    : 5
Формат                           : UTF-8
Идентификатор кодека             : S_TEXT/UTF8
Заголовок                        : German
Язык                             : German

Код:
Общее
Уникальный идентификатор         : 219831818315182416759280421813275566309 (0xA562117314767ACFBA679CDEC30BA0E5)
Формат                           : Matroska
Версия формата                   : Version 2
Размер файла                     : 4,09 Гбайт
Продолжительность                : 43 м.
Общий поток                      : 13,5 Мбит/сек
Дата кодирования                 : UTC 2011-09-25 18:48:45
Программа кодирования            : mkvmerge v3.0.0 ('Hang up your Hang-Ups') built on Dec 12 2009 15:20:35
Библиотека кодирования           : libebml v0.7.9 + libmatroska v0.8.1

Видео
Идентификатор                    : 1
Формат                           : AVC
Формат/Информация                : Advanced Video Codec
Профиль формата                  : High@L4.1
Параметр CABAC формата           : Да
Параметр ReFrames формата        : 3 кадра
Идентификатор кодека             : V_MPEG4/ISO/AVC
Продолжительность                : 43 м.
Битрейт                          : 13,0 Мбит/сек
Ширина                           : 1920 пикс.
Высота                           : 1080 пикс.
Соотношение сторон               : 16:9
Частота кадров                   : 25,000 кадр/сек
Цветовое пространство            : YUV
Подвыборка цветности             : 4:2:0
Битовая глубина                  : 8 бит
Тип развёртки                    : Прогрессивная
Бит/(Пиксели*Кадры)              : 0.251
Размер потока                    : 3,85 Гбайт (94%)
Заголовок                        : Wild Scandinavia. Episode 2. Norway
Библиотека кодирования           : x264 core 116 r2074 2641b9e
Настройки программы              : cabac=1 / ref=4 / deblock=1:-3:-3 / analyse=0x3:0 / me=tesa / subme=11 / psy=1 / psy_rd=1.00:0.00 /
                                   mixed_ref=1 / me_range=16 / chroma_me=1 / trellis=2 / 8x8dct=1 / cqm=0 / deadzone=21,11 / fast_pskip=0 /
                                   chroma_qp_offset=-2 / threads=3 / sliced_threads=0 / nr=0 / decimate=1 / interlaced=0 / bluray_compat=0 /
                                   constrained_intra=0 / bframes=8 / b_pyramid=1 / b_adapt=2 / b_bias=0 / direct=3 / weightb=1 / open_gop=1 /
                                   weightp=2 / keyint=250 / keyint_min=25 / scenecut=40 / intra_refresh=0 / rc_lookahead=40 / rc=2pass /
                                   mbtree=1 / bitrate=13000 / ratetol=1.0 / qcomp=0.60 / qpmin=10 / qpmax=51 / qpstep=4 / cplxblur=20.0 /
                                   qblur=0.5 / vbv_maxrate=50000 / vbv_bufsize=50000 / nal_hrd=none / ip_ratio=1.40 / aq=1:0.80
Язык                             : Russian

Аудио #1
Идентификатор                    : 2
Формат                           : AC-3
Формат/Информация                : Audio Coding 3
Расширение режима                : CM (complete main)
Идентификатор кодека             : A_AC3
Продолжительность                : 43 м.
Вид битрейта                     : Постоянный
Битрейт                          : 320 Кбит/сек
Каналы                           : 6 каналов
Расположение каналов             : Front: L C R, Side: L R, LFE
Частота                          : 48,0 КГц
Битовая глубина                  : 16 бит
Метод сжатия                     : С потерями
Размер потока                    : 99,0 Мбайт (2%)
Заголовок                        : Russian
Язык                             : Russian

Аудио #2
Идентификатор                    : 3
Формат                           : AC-3
Формат/Информация                : Audio Coding 3
Расширение режима                : CM (complete main)
Идентификатор кодека             : A_AC3
Продолжительность                : 43 м.
Вид битрейта                     : Постоянный
Битрейт                          : 224 Кбит/сек
Каналы                           : 6 каналов
Расположение каналов             : Front: L C R, Side: L R, LFE
Частота                          : 48,0 КГц
Битовая глубина                  : 16 бит
Метод сжатия                     : С потерями
Размер потока                    : 69,3 Мбайт (2%)
Заголовок                        : German
Язык                             : German

Текст #1
Идентификатор                    : 4
Формат                           : UTF-8
Идентификатор кодека             : S_TEXT/UTF8
Заголовок                        : Russian
Язык                             : Russian

Текст #2
Идентификатор                    : 5
Формат                           : UTF-8
Идентификатор кодека             : S_TEXT/UTF8
Заголовок                        : German
Язык                             : German

Код:
Общее
Уникальный идентификатор   : 187729746061848900044760116583408757039 (0x8D3B6F16A4E882099F7EEAF5E5A6692F)
Формат                     : Matroska
Версия формата             : Version 2
Размер файла               : 4,87 Гбайт
Продолжительность          : 43 м.
Общий поток                : 16,0 Мбит/сек
Дата кодирования           : UTC 2011-10-04 20:06:17
Программа кодирования      : mkvmerge v3.0.0 ('Hang up your Hang-Ups') built on Dec 12 2009 15:20:35
Библиотека кодирования     : libebml v0.7.9 + libmatroska v0.8.1

Видео
Идентификатор              : 1
Формат                     : AVC
Формат/Информация          : Advanced Video Codec
Профиль формата            : High@L4.1
Параметр CABAC формата     : Да
Параметр ReFrames формата  : 3 кадра
Идентификатор кодека       : V_MPEG4/ISO/AVC
Продолжительность          : 43 м.
Битрейт                    : 15,5 Мбит/сек
Ширина                     : 1920 пикс.
Высота                     : 1080 пикс.
Соотношение сторон         : 16:9
Частота кадров             : 25,000 кадр/сек
Цветовое пространство      : YUV
Подвыборка цветности       : 4:2:0
Битовая глубина            : 8 бит
Тип развёртки              : Прогрессивная
Бит/(Пиксели*Кадры)        : 0.299
Размер потока              : 4,60 Гбайт (95%)
Заголовок                  : Wild Scandinavia. Episode 3. Sweden
Библиотека кодирования     : x264 core 116 r2074 2641b9e
Настройки программы        : cabac=1 / ref=4 / deblock=1:-3:-3 / analyse=0x3:0 / me=tesa / subme=11 / psy=1 / psy_rd=1.00:0.00 /
                             mixed_ref=1 / me_range=16 / chroma_me=1 / trellis=2 / 8x8dct=1 / cqm=0 / deadzone=21,11 /
                             fast_pskip=0 / chroma_qp_offset=-2 / threads=3 / sliced_threads=0 / nr=0 / decimate=1 / interlaced=0 /
                             bluray_compat=0 / constrained_intra=0 / bframes=7 / b_pyramid=1 / b_adapt=2 / b_bias=0 / direct=3 /
                             weightb=1 / open_gop=1 / weightp=2 / keyint=250 / keyint_min=25 / scenecut=40 / intra_refresh=0 /
                             rc_lookahead=40 / rc=2pass / mbtree=1 / bitrate=15500 / ratetol=1.0 / qcomp=0.60 / qpmin=10 /
                             qpmax=51 / qpstep=4 / cplxblur=20.0 / qblur=0.5 / vbv_maxrate=50000 / vbv_bufsize=50000 /
                             nal_hrd=none / ip_ratio=1.40 / aq=1:0.80
Язык                       : Russian

Аудио #1
Идентификатор              : 2
Формат                     : AC-3
Формат/Информация          : Audio Coding 3
Расширение режима          : CM (complete main)
Идентификатор кодека       : A_AC3
Продолжительность          : 43 м.
Вид битрейта               : Постоянный
Битрейт                    : 320 Кбит/сек
Каналы                     : 6 каналов
Расположение каналов       : Front: L C R, Side: L R, LFE
Частота                    : 48,0 КГц
Битовая глубина            : 16 бит
Метод сжатия               : С потерями
Размер потока              : 99,6 Мбайт (2%)
Заголовок                  : Russian
Язык                       : Russian

Аудио #2
Идентификатор              : 3
Формат                     : AC-3
Формат/Информация          : Audio Coding 3
Расширение режима          : CM (complete main)
Идентификатор кодека       : A_AC3
Продолжительность          : 43 м.
Вид битрейта               : Постоянный
Битрейт                    : 224 Кбит/сек
Каналы                     : 6 каналов
Расположение каналов       : Front: L C R, Side: L R, LFE
Частота                    : 48,0 КГц
Битовая глубина            : 16 бит
Метод сжатия               : С потерями
Размер потока              : 69,7 Мбайт (1%)
Заголовок                  : German
Язык                       : German

Текст #1
Идентификатор              : 4
Формат                     : UTF-8
Идентификатор кодека       : S_TEXT/UTF8
Заголовок                  : Russian
Язык                       : Russian

Текст #2
Идентификатор              : 5
Формат                     : UTF-8
Идентификатор кодека       : S_TEXT/UTF8
Заголовок                  : German
Язык                       : German

Код:
Общее
Уникальный идентификатор   : 231114431965943015959766417450266985315 (0xADDF05402A29C8B6B82C5A64B2CF0363)
Формат                     : Matroska
Версия формата             : Version 2
Размер файла               : 4,62 Гбайт
Продолжительность          : 43 м.
Общий поток                : 15,3 Мбит/сек
Дата кодирования           : UTC 2011-10-11 22:33:38
Программа кодирования      : mkvmerge v3.0.0 ('Hang up your Hang-Ups') built on Dec 12 2009 15:20:35
Библиотека кодирования     : libebml v0.7.9 + libmatroska v0.8.1

Видео
Идентификатор              : 1
Формат                     : AVC
Формат/Информация          : Advanced Video Codec
Профиль формата            : High@L4.1
Параметр CABAC формата     : Да
Параметр ReFrames формата  : 3 кадра
Идентификатор кодека       : V_MPEG4/ISO/AVC
Продолжительность          : 43 м.
Битрейт                    : 14,5 Мбит/сек
Ширина                     : 1920 пикс.
Высота                     : 1080 пикс.
Соотношение сторон         : 16:9
Частота кадров             : 25,000 кадр/сек
Цветовое пространство      : YUV
Подвыборка цветности       : 4:2:0
Битовая глубина            : 8 бит
Тип развёртки              : Прогрессивная
Бит/(Пиксели*Кадры)        : 0.280
Размер потока              : 4,29 Гбайт (93%)
Заголовок                  : Wild Scandinavia. Episode 4. Iceland
Библиотека кодирования     : x264 core 116 r2074 2641b9e
Настройки программы        : cabac=1 / ref=4 / deblock=1:-3:-3 / analyse=0x3:0 / me=tesa / subme=11 / psy=1 / psy_rd=1.00:0.00 /
                             mixed_ref=1 / me_range=16 / chroma_me=1 / trellis=2 / 8x8dct=1 / cqm=0 / deadzone=21,11 / fast_pskip=0 /
                             chroma_qp_offset=-2 / threads=3 / sliced_threads=0 / nr=0 / decimate=1 / interlaced=0 / bluray_compat=0 /
                             constrained_intra=0 / bframes=6 / b_pyramid=1 / b_adapt=2 / b_bias=0 / direct=3 / weightb=1 / open_gop=1 /
                             weightp=2 / keyint=250 / keyint_min=25 / scenecut=40 / intra_refresh=0 / rc_lookahead=40 / rc=2pass /
                             mbtree=1 / bitrate=14500 / ratetol=1.0 / qcomp=0.60 / qpmin=10 / qpmax=51 / qpstep=4 / cplxblur=20.0 /
                             qblur=0.5 / vbv_maxrate=50000 / vbv_bufsize=50000 / nal_hrd=none / ip_ratio=1.40 / aq=1:0.80
Язык                       : Russian

Аудио #1
Идентификатор              : 2
Формат                     : AC-3
Формат/Информация          : Audio Coding 3
Расширение режима          : CM (complete main)
Идентификатор кодека       : A_AC3
Продолжительность          : 43 м.
Вид битрейта               : Постоянный
Битрейт                    : 384 Кбит/сек
Каналы                     : 6 каналов
Расположение каналов       : Front: L C R, Side: L R, LFE
Частота                    : 48,0 КГц
Битовая глубина            : 16 бит
Метод сжатия               : С потерями
Размер потока              : 119 Мбайт (3%)
Заголовок                  : Russian
Язык                       : Russian

Аудио #2
Идентификатор              : 3
Формат                     : AC-3
Формат/Информация          : Audio Coding 3
Расширение режима          : CM (complete main)
Идентификатор кодека       : A_AC3
Продолжительность          : 43 м.
Вид битрейта               : Постоянный
Битрейт                    : 384 Кбит/сек
Каналы                     : 6 каналов
Расположение каналов       : Front: L C R, Side: L R, LFE
Частота                    : 48,0 КГц
Битовая глубина            : 16 бит
Метод сжатия               : С потерями
Размер потока              : 119 Мбайт (3%)
Заголовок                  : German
Язык                       : German

Текст #1
Идентификатор              : 4
Формат                     : UTF-8
Идентификатор кодека       : S_TEXT/UTF8
Заголовок                  : Russian
Язык                       : Russian

Текст #2
Идентификатор              : 5
Формат                     : UTF-8
Идентификатор кодека       : S_TEXT/UTF8
Заголовок                  : German
Язык                       : German

Код:
Общее
Уникальный идентификатор   : 245296767973403167533798197195645189392 (0xB88A7066E68D887887C9D4868BB8FD10)
Формат                     : Matroska
Версия формата             : Version 2
Размер файла               : 4,64 Гбайт
Продолжительность          : 43 м.
Общий поток                : 15,3 Мбит/сек
Дата кодирования           : UTC 2011-10-18 19:02:24
Программа кодирования      : mkvmerge v3.0.0 ('Hang up your Hang-Ups') built on Dec 12 2009 15:20:35
Библиотека кодирования     : libebml v0.7.9 + libmatroska v0.8.1

Видео
Идентификатор              : 5
Формат                     : AVC
Формат/Информация          : Advanced Video Codec
Профиль формата            : High@L4.1
Параметр CABAC формата     : Да
Параметр ReFrames формата  : 3 кадра
Идентификатор кодека       : V_MPEG4/ISO/AVC
Продолжительность          : 43 м.
Битрейт                    : 14,5 Мбит/сек
Ширина                     : 1920 пикс.
Высота                     : 1080 пикс.
Соотношение сторон         : 16:9
Частота кадров             : 25,000 кадр/сек
Цветовое пространство      : YUV
Подвыборка цветности       : 4:2:0
Битовая глубина            : 8 бит
Тип развёртки              : Прогрессивная
Бит/(Пиксели*Кадры)        : 0.280
Размер потока              : 4,31 Гбайт (93%)
Заголовок                  : Wild Scandinavia. Episode 5. Finland
Библиотека кодирования     : x264 core 116 r2074 2641b9e
Настройки программы        : cabac=1 / ref=4 / deblock=1:-3:-3 / analyse=0x3:0 / me=tesa / subme=11 / psy=1 / psy_rd=1.00:0.00 /
                             mixed_ref=1 / me_range=16 / chroma_me=1 / trellis=2 / 8x8dct=1 / cqm=0 / deadzone=21,11 / fast_pskip=0 /
                             chroma_qp_offset=-2 / threads=3 / sliced_threads=0 / nr=0 / decimate=1 / interlaced=0 / bluray_compat=0 /
                             constrained_intra=0 / bframes=6 / b_pyramid=1 / b_adapt=2 / b_bias=0 / direct=3 / weightb=1 / open_gop=1 /
                             weightp=2 / keyint=250 / keyint_min=25 / scenecut=40 / intra_refresh=0 / rc_lookahead=40 / rc=2pass /
                             mbtree=1 / bitrate=14500 / ratetol=1.0 / qcomp=0.60 / qpmin=10 / qpmax=51 / qpstep=4 / cplxblur=20.0 /
                             qblur=0.5 / vbv_maxrate=50000 / vbv_bufsize=50000 / nal_hrd=none / ip_ratio=1.40 / aq=1:0.80
Язык                       : Russian

Аудио #1
Идентификатор              : 1
Формат                     : AC-3
Формат/Информация          : Audio Coding 3
Расширение режима          : CM (complete main)
Идентификатор кодека       : A_AC3
Продолжительность          : 43 м.
Вид битрейта               : Постоянный
Битрейт                    : 384 Кбит/сек
Каналы                     : 6 каналов
Расположение каналов       : Front: L C R, Side: L R, LFE
Частота                    : 48,0 КГц
Битовая глубина            : 16 бит
Метод сжатия               : С потерями
Размер потока              : 120 Мбайт (3%)
Заголовок                  : Russian
Язык                       : Russian

Аудио #2
Идентификатор              : 2
Формат                     : AC-3
Формат/Информация          : Audio Coding 3
Расширение режима          : CM (complete main)
Идентификатор кодека       : A_AC3
Продолжительность          : 43 м.
Вид битрейта               : Постоянный
Битрейт                    : 384 Кбит/сек
Каналы                     : 6 каналов
Расположение каналов       : Front: L C R, Side: L R, LFE
Частота                    : 48,0 КГц
Битовая глубина            : 16 бит
Метод сжатия               : С потерями
Размер потока              : 120 Мбайт (3%)
Заголовок                  : German
Язык                       : German

Текст #1
Идентификатор              : 3
Формат                     : UTF-8
Идентификатор кодека       : S_TEXT/UTF8
Заголовок                  : Russian
Язык                       : Russian

Текст #2
Идентификатор              : 4
Формат                     : UTF-8
Идентификатор кодека       : S_TEXT/UTF8
Заголовок                  : German
Язык                       : German

Код:
Общее
Уникальный идентификатор   : 171011286408731461181366822419801882471 (0x80A7936330BFBF0DB769D1D156C4BF67)
Формат                     : Matroska
Версия формата             : Version 2
Размер файла               : 5,08 Гбайт
Продолжительность          : 43 м.
Общий поток                : 16,7 Мбит/сек
Дата кодирования           : UTC 2011-10-25 21:55:29
Программа кодирования      : mkvmerge v3.0.0 ('Hang up your Hang-Ups') built on Dec 12 2009 15:20:35
Библиотека кодирования     : libebml v0.7.9 + libmatroska v0.8.1

Видео
Идентификатор              : 1
Формат                     : AVC
Формат/Информация          : Advanced Video Codec
Профиль формата            : High@L4.1
Параметр CABAC формата     : Да
Параметр ReFrames формата  : 3 кадра
Идентификатор кодека       : V_MPEG4/ISO/AVC
Продолжительность          : 43 м.
Битрейт                    : 16,0 Мбит/сек
Ширина                     : 1920 пикс.
Высота                     : 1080 пикс.
Соотношение сторон         : 16:9
Частота кадров             : 25,000 кадр/сек
Цветовое пространство      : YUV
Подвыборка цветности       : 4:2:0
Битовая глубина            : 8 бит
Тип развёртки              : Прогрессивная
Бит/(Пиксели*Кадры)        : 0.309
Размер потока              : 4,75 Гбайт (93%)
Заголовок                  : Wild Scandinavia. Episode 6. Greenland
Библиотека кодирования     : x264 core 116 r2074 2641b9e
Настройки программы        : cabac=1 / ref=4 / deblock=1:-3:-3 / analyse=0x3:0 / me=tesa / subme=11 / psy=1 / psy_rd=1.00:0.00 /
                             mixed_ref=1 / me_range=16 / chroma_me=1 / trellis=2 / 8x8dct=1 / cqm=0 / deadzone=21,11 / fast_pskip=0 /
                             chroma_qp_offset=-2 / threads=3 / sliced_threads=0 / nr=0 / decimate=1 / interlaced=0 / bluray_compat=0 /
                             constrained_intra=0 / bframes=6 / b_pyramid=1 / b_adapt=2 / b_bias=0 / direct=3 / weightb=1 / open_gop=1 /
                             weightp=2 / keyint=250 / keyint_min=25 / scenecut=40 / intra_refresh=0 / rc_lookahead=40 / rc=2pass /
                             mbtree=1 / bitrate=16000 / ratetol=1.0 / qcomp=0.60 / qpmin=10 / qpmax=51 / qpstep=4 / cplxblur=20.0 /
                             qblur=0.5 / vbv_maxrate=50000 / vbv_bufsize=50000 / nal_hrd=none / ip_ratio=1.40 / aq=1:0.80
Язык                       : Russian

Аудио #1
Идентификатор              : 2
Формат                     : AC-3
Формат/Информация          : Audio Coding 3
Расширение режима          : CM (complete main)
Идентификатор кодека       : A_AC3
Продолжительность          : 43 м.
Вид битрейта               : Постоянный
Битрейт                    : 384 Кбит/сек
Каналы                     : 6 каналов
Расположение каналов       : Front: L C R, Side: L R, LFE
Частота                    : 48,0 КГц
Битовая глубина            : 16 бит
Метод сжатия               : С потерями
Размер потока              : 119 Мбайт (2%)
Заголовок                  : Russian
Язык                       : Russian

Аудио #2
Идентификатор              : 3
Формат                     : AC-3
Формат/Информация          : Audio Coding 3
Расширение режима          : CM (complete main)
Идентификатор кодека       : A_AC3
Продолжительность          : 43 м.
Вид битрейта               : Постоянный
Битрейт                    : 384 Кбит/сек
Каналы                     : 6 каналов
Расположение каналов       : Front: L C R, Side: L R, LFE
Частота                    : 48,0 КГц
Битовая глубина            : 16 бит
Метод сжатия               : С потерями
Размер потока              : 119 Мбайт (2%)
Заголовок                  : German
Язык                       : German

Текст #1
Идентификатор              : 4
Формат                     : UTF-8
Идентификатор кодека       : S_TEXT/UTF8
Заголовок                  : Russian
Язык                       : Russian

Текст #2
Идентификатор              : 5
Формат                     : UTF-8
Идентификатор кодека       : S_TEXT/UTF8
Заголовок                  : German
Язык                       : German

Код:
Общее
Уникальный идентификатор   : 195133572900014229786707562433649325202 (0x92CD5BEF4F86A6C99DCF41C85E3C3492)
Формат                     : Matroska
Версия формата             : Version 2
Размер файла               : 4,17 Гбайт
Продолжительность          : 43 м.
Общий поток                : 13,8 Мбит/сек
Дата кодирования           : UTC 2011-11-27 16:30:37
Программа кодирования      : mkvmerge v3.0.0 ('Hang up your Hang-Ups') built on Dec 12 2009 15:20:35
Библиотека кодирования     : libebml v0.7.9 + libmatroska v0.8.1

Видео
Идентификатор              : 1
Формат                     : AVC
Формат/Информация          : Advanced Video Codec
Профиль формата            : High@L4.1
Параметр CABAC формата     : Да
Параметр ReFrames формата  : 3 кадра
Идентификатор кодека       : V_MPEG4/ISO/AVC
Продолжительность          : 43 м.
Битрейт                    : 13,0 Мбит/сек
Ширина                     : 1920 пикселей
Высота                     : 1080 пикселей
Соотношение сторон         : 16:9
Частота кадров             : 25,000 кадров/сек
Цветовое пространство      : YUV
Субдискретизация насыщен.  : 4:2:0
Битовая глубина            : 8 бит
Тип развёртки              : Прогрессивная
Бит/(Пиксели*Кадры)        : 0.251
Размер потока              : 3,86 Гбайт (92%)
Заголовок                  : Wild Scandinavia. Episode 7. The Adventure
Библиотека кодирования     : x264 core 116 r2074 2641b9e
Настройки программы        : cabac=1 / ref=4 / deblock=1:-3:-3 / analyse=0x3:0 / me=tesa / subme=11 / psy=1 / psy_rd=1.00:0.00 /
                             mixed_ref=1 / me_range=16 / chroma_me=1 / trellis=2 / 8x8dct=1 / cqm=0 / deadzone=21,11 /
                             fast_pskip=0 / chroma_qp_offset=-2 / threads=3 / sliced_threads=0 / nr=0 / decimate=1 / interlaced=0 /
                             bluray_compat=0 / constrained_intra=0 / bframes=6 / b_pyramid=1 / b_adapt=2 / b_bias=0 / direct=3 /
                             weightb=1 / open_gop=1 / weightp=2 / keyint=250 / keyint_min=25 / scenecut=40 / intra_refresh=0 /
                             rc_lookahead=40 / rc=2pass / mbtree=1 / bitrate=13000 / ratetol=1.0 / qcomp=0.60 / qpmin=10 /
                             qpmax=51 / qpstep=4 / cplxblur=20.0 / qblur=0.5 / vbv_maxrate=50000 / vbv_bufsize=50000 /
                             nal_hrd=none / ip_ratio=1.40 / aq=1:0.80
Язык                       : Russian
Default                    : Нет
Forced                     : Нет

Аудио #1
Идентификатор              : 2
Формат                     : AC-3
Формат/Информация          : Audio Coding 3
Расширение режима          : CM (complete main)
Идентификатор кодека       : A_AC3
Продолжительность          : 43 м.
Вид битрейта               : Постоянный
Битрейт                    : 384 Кбит/сек
Каналы                     : 6 каналов
Расположение каналов       : Front: L C R, Side: L R, LFE
Частота                    : 48,0 КГц
Битовая глубина            : 16 бит
Метод сжатия               : С потерями
Размер потока              : 119 Мбайт (3%)
Заголовок                  : Russian
Язык                       : Russian
Default                    : Да
Forced                     : Нет

Аудио #2
Идентификатор              : 3
Формат                     : AC-3
Формат/Информация          : Audio Coding 3
Расширение режима          : CM (complete main)
Идентификатор кодека       : A_AC3
Продолжительность          : 43 м.
Вид битрейта               : Постоянный
Битрейт                    : 384 Кбит/сек
Каналы                     : 6 каналов
Расположение каналов       : Front: L C R, Side: L R, LFE
Частота                    : 48,0 КГц
Битовая глубина            : 16 бит
Метод сжатия               : С потерями
Размер потока              : 119 Мбайт (3%)
Заголовок                  : German
Язык                       : German
Default                    : Нет
Forced                     : Нет

Текст #1
Идентификатор              : 4
Формат                     : UTF-8
Идентификатор кодека       : S_TEXT/UTF8
Заголовок                  : Russian
Язык                       : Russian
Default                    : Нет
Forced                     : Нет

Текст #2
Идентификатор              : 5
Формат                     : UTF-8
Идентификатор кодека       : S_TEXT/UTF8
Заголовок                  : German
Язык                       : German
Default                    : Нет
Forced                     : Нет/pre]







Спасибо большое krmgupi!



   Похожие торренты   Торрент   Размер 
В этой теме нет новых непрочитанных сообщений. Дикая природа Скандинавии / Wildes Skandinavien / Wild Scandinavia [01-07 из 07] (2011) BDRip 720p

0 | 2

15.89 ГБ

В этой теме нет новых непрочитанных сообщений. Дикая природа Скандинавии / Wildes Skandinavien / Wild Scandinavia [01 диск из 02] (2011) Blu-Ray

0 | 12

21.55 ГБ

В этой теме нет новых непрочитанных сообщений. Дикая природа Скандинавии / Wildes Skandinavien [01-07 из 07] (2011) BDRip-AVC от ExKinoRay

2 | 5

8.18 ГБ

В этой теме нет новых непрочитанных сообщений. Дикая природа Скандинавии / Wildes Skandinavien [01-07 из 07] (2011) BDRip от ExKinoRay

2 | 7

4.44 ГБ

В этой теме нет новых непрочитанных сообщений. Дикая природа Скандинавии / Wildes Skandinavien [01-07 из 07] (2011) HDRip от R.G.RealMT

3 | 38

4.91 ГБ

В этой теме нет новых непрочитанных сообщений. Дикая природа Германии / Wildes Deutschland (2011/2012) BDRip 1080p от HDCLUB

74 | 54

58.43 ГБ

В этой теме нет новых непрочитанных сообщений. Дикая природа Японии / Wildes Japan (2010) BDRip 1080i | P1

90 | 17

13.43 ГБ




Вы не можете начинать темы
Вы не можете отвечать на сообщения
Вы не можете редактировать свои сообщения
Вы не можете удалять свои сообщения
Вы не можете добавлять вложения

Перейти:  
Для Мосгорсуда, Роскомнадзора и рекламодателей: mosgorsud-torrent[собачка]yandex.ru
 Вход
ppkBB3cker v.2 © 2008-2014 @ PPK
[ Time : 0.052s | 16 Queries | GZIP : Off ]

Торрент трекер RUTOR.IN, Не можете зайти на rutor.org? Какой новый адрес рутор? Какое зеркало рутор? Не работает rutor.org и зеркала? Тогда наш торрент специально для вас. Rutor.in неофициальное зеркало rutor. В случае если у Вас заблокирован rutor или вдруг Вы не можете на него зайти, то Вы без труда сможете скачать бесплатно и без рекламы последние новинки кино, игр, сериалов и прочего у нас, на Rutor.in. Не нужно использовать прокси, чтобы зайти на рутор, достаточно воспользоваться нашим ресурсом. Все новые фильмы, игры, сериалы, книги и музыка за 2013 и 2014 годы через торрент бесплатно. Скачивайте фильмы в хорошем качестве, игры для пк, xbox, playstation без регистрации. У нас вы найдете новые Зарубежные сериалы и Русские сериалы 2013, 2014, 2015 годов. Оставайтесь с нами, качайте любимые фильмы, игры, сериалы, книги и музыку.
cron