img image001 image001 image001 image001 image001 image001 image001 image001 image001 image001 image001 image001 image001 image001 image001

Planets Sun Sun Sun
Статистика раздачи
Автор: Снежана | Размер: 15.89 ГБ | Добавлен: 25 июл 2013
Раздают: 0    Качают: 2
Скачать торрент
Скачать торрент
Описание торрента

СообщениеДобавлено: 25 июл 2013 

#77

Информация о фильме
Название: Дикая природа Скандинавии
Оригинальное название: Wildes Skandinavien / Wild Scandinavia
Год выхода: 2011
Жанр: Документальный
Режиссер: Уве Андерс, Оливер Гётцль, Ян Хафт, Тобиас Меннле

О фильме:

От создателей «Дикой природы России»! Такой Скандинавию Вы ещё не видели! В этом 7-серийном цикле демонстрируются потрясающие съемки суровой необузданной природы дальнего севера. Обрывистые берега и фьорды, ледники, вулканы и первобытные леса до сих пор служат прибежищами для редких растений и животных. От бурых медведей Финляндии до лосей Швеции, от полярных лис Исландии до овцебыков Норвегии, от северных медведей Гренландии до благородных оленей Дании – каждый фильм унесёт Вас в захватывающую дух дикую природу Северной Европы.

Эпизоды: 1 – Дания, 2 – Норвегия, 3 – Швеция, 4 – Исландия, 5 – Финляндия, 6 – Гренландия, 7 – Приключения (как снимался цикл).

Список серий:
Эпизод 1. Daenemark
Эпизод 2. Norwegen
Эпизод 3. Schweden
Эпизод 4. Iceland
Эпизод 5. Finland
Эпизод 6. Greenland
Эпизод 7. The Adventure

Страна: Германия
Студия: Nautilusfilm, NDR Naturfilm Studio Hamburg
Продолжительность: 00:43:00 серия
Перевод: Одноголосый закадровый - В.Курдов
Русские субтитры: есть

Файл
Качество: BDRip
Формат: MKV
Видео кодек: x264
Аудио кодек: AC3
Видео: x264, 1280x720p, 25fps, ~7000Kbps
Аудио: Russian AC3, 6Ch, 48kHz, 320Kbps
Аудио: German AC3, 6Ch, 48kHz, 224Kbps
Субтитры: Русские, немецкие

Код:
Общее
[b]Уникальный идентификатор   [/b]: 190337137417161956414498172201403701063 (0x8F319968523DD4B9A2623F7CC7DC5747)
[b]Формат                     [/b]: Matroska
[b]Версия формата             [/b]: Version 2
[b]Размер файла               [/b]: 2,19 Гбайт
[b]Продолжительность          [/b]: 43 м.
[b]Общий поток                [/b]: 7246 Кбит/сек
[b]Дата кодирования           [/b]: UTC 2011-09-19 20:58:52
[b]Программа кодирования      [/b]: mkvmerge v3.0.0 ('Hang up your Hang-Ups') built on Dec 12 2009 15:20:35
[b]Библиотека кодирования     [/b]: libebml v0.7.9 + libmatroska v0.8.1

Видео
[b]Идентификатор              [/b]: 1
[b]Формат                     [/b]: AVC
[b]Формат/Информация          [/b]: Advanced Video Codec
[b]Профиль формата            [/b]: High@L4.1
[b]Параметр CABAC формата     [/b]: Да
[b]Параметр ReFrames формата  [/b]: 4 кадра
[b]Идентификатор кодека       [/b]: V_MPEG4/ISO/AVC
[b]Продолжительность          [/b]: 43 м.
[b]Битрейт                    [/b]: 6700 Кбит/сек
[b]Ширина                     [/b]: 1280 пикс.
[b]Высота                     [/b]: 720 пикс.
[b]Соотношение сторон         [/b]: 16:9
[b]Частота кадров             [/b]: 25,000 кадр/сек
[b]Цветовое пространство      [/b]: YUV
[b]Подвыборка цветности       [/b]: 4:2:0
[b]Битовая глубина            [/b]: 8 бит
[b]Тип развёртки              [/b]: Прогрессивная
[b]Бит/(Пиксели*Кадры)        [/b]: 0.291
[b]Размер потока              [/b]: 1,98 Гбайт (91%)
[b]Заголовок                  [/b]: Wild Scandinavia. Episode 1. Denmark
[b]Библиотека кодирования     [/b]: x264 core 116 r2074 2641b9e
[b]Настройки программы        [/b]: cabac=1 / ref=5 / deblock=1:-3:-3 / analyse=0x3:0 / me=tesa / subme=11 / psy=1 / psy_rd=1.00:0.00 / mixed_ref=1 /
                             me_range=16 / chroma_me=1 / trellis=2 / 8x8dct=1 / cqm=0 / deadzone=21,11 / fast_pskip=0 / chroma_qp_offset=-2 /
                             threads=3 / sliced_threads=0 / nr=0 / decimate=1 / interlaced=0 / bluray_compat=0 / constrained_intra=0 /
                             bframes=6 / b_pyramid=1 / b_adapt=2 / b_bias=0 / direct=3 / weightb=1 / open_gop=1 / weightp=2 / keyint=250 /
                             keyint_min=25 / scenecut=40 / intra_refresh=0 / rc_lookahead=40 / rc=2pass / mbtree=1 / bitrate=6700 /
                             ratetol=1.0 / qcomp=0.60 / qpmin=10 / qpmax=51 / qpstep=4 / cplxblur=20.0 / qblur=0.5 / vbv_maxrate=50000 /
                             vbv_bufsize=50000 / nal_hrd=none / ip_ratio=1.40 / aq=1:0.80
[b]Язык                       [/b]: Russian

Аудио #1
[b]Идентификатор              [/b]: 2
[b]Формат                     [/b]: AC-3
[b]Формат/Информация          [/b]: Audio Coding 3
[b]Расширение режима          [/b]: CM (complete main)
[b]Идентификатор кодека       [/b]: A_AC3
[b]Продолжительность          [/b]: 43 м.
[b]Вид битрейта               [/b]: Постоянный
[b]Битрейт                    [/b]: 320 Кбит/сек
[b]Каналы                     [/b]: 6 каналов
[b]Расположение каналов       [/b]: Front: L C R, Side: L R, LFE
[b]Частота                    [/b]: 48,0 КГц
[b]Битовая глубина            [/b]: 16 бит
[b]Метод сжатия               [/b]: С потерями
[b]Размер потока              [/b]: 99,1 Мбайт (4%)
[b]Заголовок                  [/b]: Russian
[b]Язык                       [/b]: Russian

Аудио #2
[b]Идентификатор              [/b]: 3
[b]Формат                     [/b]: AC-3
[b]Формат/Информация          [/b]: Audio Coding 3
[b]Расширение режима          [/b]: CM (complete main)
[b]Идентификатор кодека       [/b]: A_AC3
[b]Продолжительность          [/b]: 43 м.
[b]Вид битрейта               [/b]: Постоянный
[b]Битрейт                    [/b]: 224 Кбит/сек
[b]Каналы                     [/b]: 6 каналов
[b]Расположение каналов       [/b]: Front: L C R, Side: L R, LFE
[b]Частота                    [/b]: 48,0 КГц
[b]Битовая глубина            [/b]: 16 бит
[b]Метод сжатия               [/b]: С потерями
[b]Размер потока              [/b]: 69,4 Мбайт (3%)
[b]Заголовок                  [/b]: German
[b]Язык                       [/b]: German

Текст #1
[b]Идентификатор              [/b]: 4
[b]Формат                     [/b]: UTF-8
[b]Идентификатор кодека       [/b]: S_TEXT/UTF8
[b]Заголовок                  [/b]: Russian
[b]Язык                       [/b]: Russian

Текст #2
[b]Идентификатор              [/b]: 5
[b]Формат                     [/b]: UTF-8
[b]Идентификатор кодека       [/b]: S_TEXT/UTF8
[b]Заголовок                  [/b]: German
Язык                       : German

Код:
Общее
Уникальный идентификатор         : 181980042138109295424513377572965013582 (0x88E814CC5F2308FB93FF1DC8A53B584E)
Формат                           : Matroska
Версия формата                   : Version 2
Размер файла                     : 1,98 Гбайт
Продолжительность                : 43 м.
Общий поток                      : 6544 Кбит/сек
Дата кодирования                 : UTC 2011-09-25 18:33:08
Программа кодирования            : mkvmerge v3.0.0 ('Hang up your Hang-Ups') built on Dec 12 2009 15:20:35
Библиотека кодирования           : libebml v0.7.9 + libmatroska v0.8.1

Видео
Идентификатор                    : 1
Формат                           : AVC
Формат/Информация                : Advanced Video Codec
Профиль формата                  : High@L4.1
Параметр CABAC формата           : Да
Параметр ReFrames формата        : 4 кадра
Идентификатор кодека             : V_MPEG4/ISO/AVC
Продолжительность                : 43 м.
Битрейт                          : 6000 Кбит/сек
Ширина                           : 1280 пикс.
Высота                           : 720 пикс.
Соотношение сторон               : 16:9
Частота кадров                   : 25,000 кадр/сек
Цветовое пространство            : YUV
Подвыборка цветности             : 4:2:0
Битовая глубина                  : 8 бит
Тип развёртки                    : Прогрессивная
Бит/(Пиксели*Кадры)              : 0.260
Размер потока                    : 1,77 Гбайт (90%)
Заголовок                        : Wild Scandinavia. Episode 2. Norway
Библиотека кодирования           : x264 core 116 r2074 2641b9e
Настройки программы              : cabac=1 / ref=5 / deblock=1:-3:-3 / analyse=0x3:0 / me=tesa / subme=10 / psy=1 / psy_rd=1.00:0.00 /
                                   mixed_ref=1 / me_range=16 / chroma_me=1 / trellis=2 / 8x8dct=1 / cqm=0 / deadzone=21,11 /
                                   fast_pskip=0 / chroma_qp_offset=-2 / threads=3 / sliced_threads=0 / nr=0 / decimate=1 / interlaced=0 /
                                   bluray_compat=0 / constrained_intra=0 / bframes=6 / b_pyramid=1 / b_adapt=2 / b_bias=0 / direct=3 /
                                   weightb=1 / open_gop=1 / weightp=2 / keyint=250 / keyint_min=25 / scenecut=40 / intra_refresh=0 /
                                   rc_lookahead=40 / rc=2pass / mbtree=1 / bitrate=6000 / ratetol=1.0 / qcomp=0.60 / qpmin=10 / qpmax=51 /
                                   qpstep=4 / cplxblur=20.0 / qblur=0.5 / vbv_maxrate=50000 / vbv_bufsize=50000 / nal_hrd=none /
                                   ip_ratio=1.40 / aq=1:0.80
Язык                             : Russian

Аудио #1
Идентификатор                    : 2
Формат                           : AC-3
Формат/Информация                : Audio Coding 3
Расширение режима                : CM (complete main)
Идентификатор кодека             : A_AC3
Продолжительность                : 43 м.
Вид битрейта                     : Постоянный
Битрейт                          : 320 Кбит/сек
Каналы                           : 6 каналов
Расположение каналов             : Front: L C R, Side: L R, LFE
Частота                          : 48,0 КГц
Битовая глубина                  : 16 бит
Метод сжатия                     : С потерями
Размер потока                    : 99,0 Мбайт (5%)
Заголовок                        : Russian
Язык                             : Russian

Аудио #2
Идентификатор                    : 3
Формат                           : AC-3
Формат/Информация                : Audio Coding 3
Расширение режима                : CM (complete main)
Идентификатор кодека             : A_AC3
Продолжительность                : 43 м.
Вид битрейта                     : Постоянный
Битрейт                          : 224 Кбит/сек
Каналы                           : 6 каналов
Расположение каналов             : Front: L C R, Side: L R, LFE
Частота                          : 48,0 КГц
Битовая глубина                  : 16 бит
Метод сжатия                     : С потерями
Размер потока                    : 69,3 Мбайт (3%)
Заголовок                        : German
Язык                             : German

Текст #1
Идентификатор                    : 4
Формат                           : UTF-8
Идентификатор кодека             : S_TEXT/UTF8
Заголовок                        : Russian
Язык                             : Russian

Текст #2
Идентификатор                    : 5
Формат                           : UTF-8
Идентификатор кодека             : S_TEXT/UTF8
Заголовок                        : German
Язык                             : German

Код:
Общее
[b]Уникальный идентификатор   [/b]: 219313808247026316203384433018851471293 (0xA4FE4D94D1C87B1997CE00A9F45EAFBD)
[b]Формат                     [/b]: Matroska
[b]Версия формата             [/b]: Version 2
[b]Размер файла               [/b]: 2,29 Гбайт
[b]Продолжительность          [/b]: 43 м.
[b]Общий поток                [/b]: 7544 Кбит/сек
[b]Дата кодирования           [/b]: UTC 2011-10-04 19:53:25
[b]Программа кодирования      [/b]: mkvmerge v3.0.0 ('Hang up your Hang-Ups') built on Dec 12 2009 15:20:35
[b]Библиотека кодирования     [/b]: libebml v0.7.9 + libmatroska v0.8.1

Видео
[b]Идентификатор              [/b]: 1
[b]Формат                     [/b]: AVC
[b]Формат/Информация          [/b]: Advanced Video Codec
[b]Профиль формата            [/b]: High@L4.1
[b]Параметр CABAC формата     [/b]: Да
[b]Параметр ReFrames формата  [/b]: 4 кадра
[b]Идентификатор кодека       [/b]: V_MPEG4/ISO/AVC
[b]Продолжительность          [/b]: 43 м.
[b]Битрейт                    [/b]: 7000 Кбит/сек
[b]Ширина                     [/b]: 1280 пикс.
[b]Высота                     [/b]: 720 пикс.
[b]Соотношение сторон         [/b]: 16:9
[b]Частота кадров             [/b]: 25,000 кадр/сек
[b]Цветовое пространство      [/b]: YUV
[b]Подвыборка цветности       [/b]: 4:2:0
[b]Битовая глубина            [/b]: 8 бит
[b]Тип развёртки              [/b]: Прогрессивная
[b]Бит/(Пиксели*Кадры)        [/b]: 0.304
[b]Размер потока              [/b]: 2,08 Гбайт (91%)
[b]Заголовок                  [/b]: Wild Scandinavia. Episode 3. Sweden
[b]Библиотека кодирования     [/b]: x264 core 116 r2074 2641b9e
[b]Настройки программы        [/b]: cabac=1 / ref=5 / deblock=1:-3:-3 / analyse=0x3:0 / me=tesa / subme=11 / psy=1 / psy_rd=1.00:0.00 /
                             mixed_ref=1 / me_range=16 / chroma_me=1 / trellis=2 / 8x8dct=1 / cqm=0 / deadzone=21,11 / fast_pskip=0 /
                             chroma_qp_offset=-2 / threads=3 / sliced_threads=0 / nr=0 / decimate=1 / interlaced=0 / bluray_compat=0 /
                             constrained_intra=0 / bframes=8 / b_pyramid=1 / b_adapt=2 / b_bias=0 / direct=3 / weightb=1 /
                             open_gop=1 / weightp=2 / keyint=250 / keyint_min=25 / scenecut=40 / intra_refresh=0 / rc_lookahead=40 /
                             rc=2pass / mbtree=1 / bitrate=7000 / ratetol=1.0 / qcomp=0.60 / qpmin=10 / qpmax=51 / qpstep=4 /
                             cplxblur=20.0 / qblur=0.5 / vbv_maxrate=50000 / vbv_bufsize=50000 / nal_hrd=none / ip_ratio=1.40 / aq=1:0.80
[b]Язык                       [/b]: Russian

Аудио #1
[b]Идентификатор              [/b]: 2
[b]Формат                     [/b]: AC-3
[b]Формат/Информация          [/b]: Audio Coding 3
[b]Расширение режима          [/b]: CM (complete main)
[b]Идентификатор кодека       [/b]: A_AC3
[b]Продолжительность          [/b]: 43 м.
[b]Вид битрейта               [/b]: Постоянный
[b]Битрейт                    [/b]: 320 Кбит/сек
[b]Каналы                     [/b]: 6 каналов
[b]Расположение каналов       [/b]: Front: L C R, Side: L R, LFE
[b]Частота                    [/b]: 48,0 КГц
[b]Битовая глубина            [/b]: 16 бит
[b]Метод сжатия               [/b]: С потерями
[b]Размер потока              [/b]: 99,6 Мбайт (4%)
[b]Заголовок                  [/b]: Russian
[b]Язык                       [/b]: Russian

Аудио #2
[b]Идентификатор              [/b]: 3
[b]Формат                     [/b]: AC-3
[b]Формат/Информация          [/b]: Audio Coding 3
[b]Расширение режима          [/b]: CM (complete main)
[b]Идентификатор кодека       [/b]: A_AC3
[b]Продолжительность          [/b]: 43 м.
[b]Вид битрейта               [/b]: Постоянный
[b]Битрейт                    [/b]: 224 Кбит/сек
[b]Каналы                     [/b]: 6 каналов
[b]Расположение каналов       [/b]: Front: L C R, Side: L R, LFE
[b]Частота                    [/b]: 48,0 КГц
[b]Битовая глубина            [/b]: 16 бит
[b]Метод сжатия               [/b]: С потерями
[b]Размер потока              [/b]: 69,7 Мбайт (3%)
[b]Заголовок                  [/b]: German
[b]Язык                       [/b]: German

Текст #1
[b]Идентификатор              [/b]: 4
[b]Формат                     [/b]: UTF-8
[b]Идентификатор кодека       [/b]: S_TEXT/UTF8
[b]Заголовок                  [/b]: Russian
[b]Язык                       [/b]: Russian

Текст #2
[b]Идентификатор              [/b]: 5
[b]Формат                     [/b]: UTF-8
[b]Идентификатор кодека       [/b]: S_TEXT/UTF8
[b]Заголовок                  [/b]: German
Язык                       : German

Код:
Общее
[b]Уникальный идентификатор   [/b]: 185434388093075968487635810133816727432 (0x8B815D3400DA70E998E6FE3361F95788)
[b]Формат                     [/b]: Matroska
[b]Версия формата             [/b]: Version 2
[b]Размер файла               [/b]: 2,35 Гбайт
[b]Продолжительность          [/b]: 43 м.
[b]Общий поток                [/b]: 7766 Кбит/сек
[b]Дата кодирования           [/b]: UTC 2011-10-11 22:07:36
[b]Программа кодирования      [/b]: mkvmerge v3.0.0 ('Hang up your Hang-Ups') built on Dec 12 2009 15:20:35
[b]Библиотека кодирования     [/b]: libebml v0.7.9 + libmatroska v0.8.1

Видео
[b]Идентификатор              [/b]: 1
[b]Формат                     [/b]: AVC
[b]Формат/Информация          [/b]: Advanced Video Codec
[b]Профиль формата            [/b]: High@L4.1
[b]Параметр CABAC формата     [/b]: Да
[b]Параметр ReFrames формата  [/b]: 4 кадра
[b]Идентификатор кодека       [/b]: V_MPEG4/ISO/AVC
[b]Продолжительность          [/b]: 43 м.
[b]Битрейт                    [/b]: 7000 Кбит/сек
[b]Ширина                     [/b]: 1280 пикс.
[b]Высота                     [/b]: 720 пикс.
[b]Соотношение сторон         [/b]: 16:9
[b]Частота кадров             [/b]: 25,000 кадр/сек
[b]Цветовое пространство      [/b]: YUV
[b]Подвыборка цветности       [/b]: 4:2:0
[b]Битовая глубина            [/b]: 8 бит
[b]Тип развёртки              [/b]: Прогрессивная
[b]Бит/(Пиксели*Кадры)        [/b]: 0.304
[b]Размер потока              [/b]: 2,07 Гбайт (88%)
[b]Заголовок                  [/b]: Wild Scandinavia. Episode 4. Iceland
[b]Библиотека кодирования     [/b]: x264 core 116 r2074 2641b9e
[b]Настройки программы        [/b]: cabac=1 / ref=5 / deblock=1:-3:-3 / analyse=0x3:0 / me=tesa / subme=11 / psy=1 / psy_rd=1.00:0.00 / mixed_ref=1 /
                             me_range=16 / chroma_me=1 / trellis=2 / 8x8dct=1 / cqm=0 / deadzone=21,11 / fast_pskip=0 / chroma_qp_offset=-2 /
                             threads=3 / sliced_threads=0 / nr=0 / decimate=1 / interlaced=0 / bluray_compat=0 / constrained_intra=0 /
                             bframes=8 / b_pyramid=1 / b_adapt=2 / b_bias=0 / direct=3 / weightb=1 / open_gop=1 / weightp=2 / keyint=250 /
                             keyint_min=25 / scenecut=40 / intra_refresh=0 / rc_lookahead=40 / rc=2pass / mbtree=1 / bitrate=7000 /
                             ratetol=1.0 / qcomp=0.60 / qpmin=10 / qpmax=51 / qpstep=4 / cplxblur=20.0 / qblur=0.5 / vbv_maxrate=50000 /
                             vbv_bufsize=50000 / nal_hrd=none / ip_ratio=1.40 / aq=1:0.80
[b]Язык                       [/b]: Russian

Аудио #1
[b]Идентификатор              [/b]: 2
[b]Формат                     [/b]: AC-3
[b]Формат/Информация          [/b]: Audio Coding 3
[b]Расширение режима          [/b]: CM (complete main)
[b]Идентификатор кодека       [/b]: A_AC3
[b]Продолжительность          [/b]: 43 м.
[b]Вид битрейта               [/b]: Постоянный
[b]Битрейт                    [/b]: 384 Кбит/сек
[b]Каналы                     [/b]: 6 каналов
[b]Расположение каналов       [/b]: Front: L C R, Side: L R, LFE
[b]Частота                    [/b]: 48,0 КГц
[b]Битовая глубина            [/b]: 16 бит
[b]Метод сжатия               [/b]: С потерями
[b]Размер потока              [/b]: 119 Мбайт (5%)
[b]Заголовок                  [/b]: Russian
[b]Язык                       [/b]: Russian

Аудио #2
[b]Идентификатор              [/b]: 3
[b]Формат                     [/b]: AC-3
[b]Формат/Информация          [/b]: Audio Coding 3
[b]Расширение режима          [/b]: CM (complete main)
[b]Идентификатор кодека       [/b]: A_AC3
[b]Продолжительность          [/b]: 43 м.
[b]Вид битрейта               [/b]: Постоянный
[b]Битрейт                    [/b]: 384 Кбит/сек
[b]Каналы                     [/b]: 6 каналов
[b]Расположение каналов       [/b]: Front: L C R, Side: L R, LFE
[b]Частота                    [/b]: 48,0 КГц
[b]Битовая глубина            [/b]: 16 бит
[b]Метод сжатия               [/b]: С потерями
[b]Размер потока              [/b]: 119 Мбайт (5%)
[b]Заголовок                  [/b]: German
[b]Язык                       [/b]: German

Текст #1
[b]Идентификатор              [/b]: 4
[b]Формат                     [/b]: UTF-8
[b]Идентификатор кодека       [/b]: S_TEXT/UTF8
[b]Заголовок                  [/b]: Russian
[b]Язык                       [/b]: Russian

Текст #2
[b]Идентификатор              [/b]: 5
[b]Формат                     [/b]: UTF-8
[b]Идентификатор кодека       [/b]: S_TEXT/UTF8
[b]Заголовок                  [/b]: German
Язык                       : German

Код:
Общее
Уникальный идентификатор   : 192106257275317947087204869426407871481 (0x908651C0348B075C837B1BA8AC3D13F9)
Формат                     : Matroska
Версия формата             : Version 2
Размер файла               : 2,36 Гбайт
Продолжительность          : 43 м.
Общий поток                : 7767 Кбит/сек
Дата кодирования           : UTC 2011-10-18 18:37:04
Программа кодирования      : mkvmerge v3.0.0 ('Hang up your Hang-Ups') built on Dec 12 2009 15:20:35
Библиотека кодирования     : libebml v0.7.9 + libmatroska v0.8.1

Видео
Идентификатор              : 1
Формат                     : AVC
Формат/Информация          : Advanced Video Codec
Профиль формата            : High@L4.1
Параметр CABAC формата     : Да
Параметр ReFrames формата  : 4 кадра
Идентификатор кодека       : V_MPEG4/ISO/AVC
Продолжительность          : 43 м.
Битрейт                    : 7000 Кбит/сек
Ширина                     : 1280 пикс.
Высота                     : 720 пикс.
Соотношение сторон         : 16:9
Частота кадров             : 25,000 кадр/сек
Цветовое пространство      : YUV
Подвыборка цветности       : 4:2:0
Битовая глубина            : 8 бит
Тип развёртки              : Прогрессивная
Бит/(Пиксели*Кадры)        : 0.304
Размер потока              : 2,08 Гбайт (88%)
Заголовок                  : Wild Scandinavia. Episode 5. Finland
Библиотека кодирования     : x264 core 116 r2074 2641b9e
Настройки программы        : cabac=1 / ref=5 / deblock=1:-3:-3 / analyse=0x3:0 / me=tesa / subme=11 / psy=1 / psy_rd=1.00:0.00 /
                             mixed_ref=1 / me_range=16 / chroma_me=1 / trellis=2 / 8x8dct=1 / cqm=0 / deadzone=21,11 / fast_pskip=0 /
                             chroma_qp_offset=-2 / threads=3 / sliced_threads=0 / nr=0 / decimate=1 / interlaced=0 / bluray_compat=0 /
                             constrained_intra=0 / bframes=7 / b_pyramid=1 / b_adapt=2 / b_bias=0 / direct=3 / weightb=1 / open_gop=1 /
                             weightp=2 / keyint=250 / keyint_min=25 / scenecut=40 / intra_refresh=0 / rc_lookahead=40 / rc=2pass /
                             mbtree=1 / bitrate=7000 / ratetol=1.0 / qcomp=0.60 / qpmin=10 / qpmax=51 / qpstep=4 / cplxblur=20.0 /
                             qblur=0.5 / vbv_maxrate=50000 / vbv_bufsize=50000 / nal_hrd=none / ip_ratio=1.40 / aq=1:0.80
Язык                       : Russian

Аудио #1
Идентификатор              : 2
Формат                     : AC-3
Формат/Информация          : Audio Coding 3
Расширение режима          : CM (complete main)
Идентификатор кодека       : A_AC3
Продолжительность          : 43 м.
Вид битрейта               : Постоянный
Битрейт                    : 384 Кбит/сек
Каналы                     : 6 каналов
Расположение каналов       : Front: L C R, Side: L R, LFE
Частота                    : 48,0 КГц
Битовая глубина            : 16 бит
Метод сжатия               : С потерями
Размер потока              : 120 Мбайт (5%)
Заголовок                  : Russian
Язык                       : Russian

Аудио #2
Идентификатор              : 3
Формат                     : AC-3
Формат/Информация          : Audio Coding 3
Расширение режима          : CM (complete main)
Идентификатор кодека       : A_AC3
Продолжительность          : 43 м.
Вид битрейта               : Постоянный
Битрейт                    : 384 Кбит/сек
Каналы                     : 6 каналов
Расположение каналов       : Front: L C R, Side: L R, LFE
Частота                    : 48,0 КГц
Битовая глубина            : 16 бит
Метод сжатия               : С потерями
Размер потока              : 120 Мбайт (5%)
Заголовок                  : German
Язык                       : German

Текст #1
Идентификатор              : 4
Формат                     : UTF-8
Идентификатор кодека       : S_TEXT/UTF8
Заголовок                  : Russian
Язык                       : Russian

Текст #2
Идентификатор              : 5
Формат                     : UTF-8
Идентификатор кодека       : S_TEXT/UTF8
Заголовок                  : German
Язык                       : German

Код:
Общее
Уникальный идентификатор   : 192139995662034800821097405236669863895 (0x908CD12E838A06D9B2124AFF8CAC57D7)
Формат                     : Matroska
Версия формата             : Version 2
Размер файла               : 2,36 Гбайт
Продолжительность          : 43 м.
Общий поток                : 7770 Кбит/сек
Дата кодирования           : UTC 2011-10-25 21:12:47
Программа кодирования      : mkvmerge v3.0.0 ('Hang up your Hang-Ups') built on Dec 12 2009 15:20:35
Библиотека кодирования     : libebml v0.7.9 + libmatroska v0.8.1

Видео
Идентификатор              : 1
Формат                     : AVC
Формат/Информация          : Advanced Video Codec
Профиль формата            : High@L4.1
Параметр CABAC формата     : Да
Параметр ReFrames формата  : 4 кадра
Параметры GOP формата      : M=1, N=25
Идентификатор кодека       : V_MPEG4/ISO/AVC
Продолжительность          : 43 м.
Битрейт                    : 7000 Кбит/сек
Ширина                     : 1280 пикс.
Высота                     : 720 пикс.
Соотношение сторон         : 16:9
Частота кадров             : 25,000 кадр/сек
Цветовое пространство      : YUV
Подвыборка цветности       : 4:2:0
Битовая глубина            : 8 бит
Тип развёртки              : Прогрессивная
Бит/(Пиксели*Кадры)        : 0.304
Размер потока              : 2,08 Гбайт (88%)
Заголовок                  : Wild Scandinavia. Episode 6. Greenland
Библиотека кодирования     : x264 core 116 r2074 2641b9e
Настройки программы        : cabac=1 / ref=5 / deblock=1:-3:-3 / analyse=0x3:0 / me=tesa / subme=11 / psy=1 / psy_rd=1.00:0.00 /
                             mixed_ref=1 / me_range=16 / chroma_me=1 / trellis=2 / 8x8dct=1 / cqm=0 / deadzone=21,11 / fast_pskip=0 /
                             chroma_qp_offset=-2 / threads=3 / sliced_threads=0 / nr=0 / decimate=1 / interlaced=0 / bluray_compat=0 /
                             constrained_intra=0 / bframes=7 / b_pyramid=1 / b_adapt=2 / b_bias=0 / direct=3 / weightb=1 / open_gop=1 /
                             weightp=2 / keyint=250 / keyint_min=25 / scenecut=40 / intra_refresh=0 / rc_lookahead=40 / rc=2pass /
                             mbtree=1 / bitrate=7000 / ratetol=1.0 / qcomp=0.60 / qpmin=10 / qpmax=51 / qpstep=4 / cplxblur=20.0 /
                             qblur=0.5 / vbv_maxrate=50000 / vbv_bufsize=50000 / nal_hrd=none / ip_ratio=1.40 / aq=1:0.80
Язык                       : Russian

Аудио #1
Идентификатор              : 2
Формат                     : AC-3
Формат/Информация          : Audio Coding 3
Расширение режима          : CM (complete main)
Идентификатор кодека       : A_AC3
Продолжительность          : 43 м.
Вид битрейта               : Постоянный
Битрейт                    : 384 Кбит/сек
Каналы                     : 6 каналов
Расположение каналов       : Front: L C R, Side: L R, LFE
Частота                    : 48,0 КГц
Битовая глубина            : 16 бит
Метод сжатия               : С потерями
Размер потока              : 119 Мбайт (5%)
Заголовок                  : Russian
Язык                       : Russian

Аудио #2
Идентификатор              : 3
Формат                     : AC-3
Формат/Информация          : Audio Coding 3
Расширение режима          : CM (complete main)
Идентификатор кодека       : A_AC3
Продолжительность          : 43 м.
Вид битрейта               : Постоянный
Битрейт                    : 384 Кбит/сек
Каналы                     : 6 каналов
Расположение каналов       : Front: L C R, Side: L R, LFE
Частота                    : 48,0 КГц
Битовая глубина            : 16 бит
Метод сжатия               : С потерями
Размер потока              : 119 Мбайт (5%)
Заголовок                  : German
Язык                       : German

Текст #1
Идентификатор              : 4
Формат                     : UTF-8
Идентификатор кодека       : S_TEXT/UTF8
Заголовок                  : Russian
Язык                       : Russian

Текст #2
Идентификатор              : 5
Формат                     : UTF-8
Идентификатор кодека       : S_TEXT/UTF8
Заголовок                  : German
Язык                       : German

Код:
Общее
Уникальный идентификатор   : 226676345810226294360306399064425642408 (0xAA8846B59198EA1C9F1127EAE4FA39A8)
Формат                     : Matroska
Версия формата             : Version 2
Размер файла               : 2,36 Гбайт
Продолжительность          : 43 м.
Общий поток                : 7771 Кбит/сек
Дата кодирования           : UTC 2011-11-27 16:20:01
Программа кодирования      : mkvmerge v3.0.0 ('Hang up your Hang-Ups') built on Dec 12 2009 15:20:35
Библиотека кодирования     : libebml v0.7.9 + libmatroska v0.8.1

Видео
Идентификатор              : 1
Формат                     : AVC
Формат/Информация          : Advanced Video Codec
Профиль формата            : High@L4.1
Параметр CABAC формата     : Да
Параметр ReFrames формата  : 4 кадра
Идентификатор кодека       : V_MPEG4/ISO/AVC
Продолжительность          : 43 м.
Битрейт                    : 7000 Кбит/сек
Ширина                     : 1280 пикселей
Высота                     : 720 пикселей
Соотношение сторон         : 16:9
Частота кадров             : 25,000 кадров/сек
Цветовое пространство      : YUV
Субдискретизация насыщен.  : 4:2:0
Битовая глубина            : 8 бит
Тип развёртки              : Прогрессивная
Бит/(Пиксели*Кадры)        : 0.304
Размер потока              : 2,08 Гбайт (88%)
Заголовок                  : Wild Scandinavia. Episode 7. The Adventure
Библиотека кодирования     : x264 core 116 r2074 2641b9e
Настройки программы        : cabac=1 / ref=5 / deblock=1:-3:-3 / analyse=0x3:0 / me=tesa / subme=11 / psy=1 / psy_rd=1.00:0.00 /
                             mixed_ref=1 / me_range=16 / chroma_me=1 / trellis=2 / 8x8dct=1 / cqm=0 / deadzone=21,11 /
                             fast_pskip=0 / chroma_qp_offset=-2 / threads=3 / sliced_threads=0 / nr=0 / decimate=1 / interlaced=0 /
                             bluray_compat=0 / constrained_intra=0 / bframes=6 / b_pyramid=1 / b_adapt=2 / b_bias=0 / direct=3 /
                             weightb=1 / open_gop=1 / weightp=2 / keyint=250 / keyint_min=25 / scenecut=40 / intra_refresh=0 /
                             rc_lookahead=40 / rc=2pass / mbtree=1 / bitrate=7000 / ratetol=1.0 / qcomp=0.60 / qpmin=10 / qpmax=51 /
                             qpstep=4 / cplxblur=20.0 / qblur=0.5 / vbv_maxrate=50000 / vbv_bufsize=50000 / nal_hrd=none /
                             ip_ratio=1.40 / aq=1:0.80
Язык                       : Russian
Default                    : Нет
Forced                     : Нет

Аудио #1
Идентификатор              : 2
Формат                     : AC-3
Формат/Информация          : Audio Coding 3
Расширение режима          : CM (complete main)
Идентификатор кодека       : A_AC3
Продолжительность          : 43 м.
Вид битрейта               : Постоянный
Битрейт                    : 384 Кбит/сек
Каналы                     : 6 каналов
Расположение каналов       : Front: L C R, Side: L R, LFE
Частота                    : 48,0 КГц
Битовая глубина            : 16 бит
Метод сжатия               : С потерями
Размер потока              : 119 Мбайт (5%)
Заголовок                  : Russian
Язык                       : Russian
Default                    : Да
Forced                     : Нет

Аудио #2
Идентификатор              : 3
Формат                     : AC-3
Формат/Информация          : Audio Coding 3
Расширение режима          : CM (complete main)
Идентификатор кодека       : A_AC3
Продолжительность          : 43 м.
Вид битрейта               : Постоянный
Битрейт                    : 384 Кбит/сек
Каналы                     : 6 каналов
Расположение каналов       : Front: L C R, Side: L R, LFE
Частота                    : 48,0 КГц
Битовая глубина            : 16 бит
Метод сжатия               : С потерями
Размер потока              : 119 Мбайт (5%)
Заголовок                  : German
Язык                       : German
Default                    : Нет
Forced                     : Нет

Текст #1
Идентификатор              : 4
Формат                     : UTF-8
Идентификатор кодека       : S_TEXT/UTF8
Заголовок                  : Russian
Язык                       : Russian
Default                    : Нет
Forced                     : Нет

Текст #2
Идентификатор              : 5
Формат                     : UTF-8
Идентификатор кодека       : S_TEXT/UTF8
Заголовок                  : German
Язык                       : German
Default                    : Нет
Forced                     : Нет








Спасибо большое krmgupi!



   Похожие торренты   Торрент   Размер 
В этой теме нет новых непрочитанных сообщений. Дикая природа Скандинавии / Wildes Skandinavien / Wild Scandinavia [01-07 из 07] (2011) BDRip 1080p

3 | 3

31.56 ГБ

В этой теме нет новых непрочитанных сообщений. Дикая природа Скандинавии / Wildes Skandinavien / Wild Scandinavia [01 диск из 02] (2011) Blu-Ray

0 | 12

21.55 ГБ

В этой теме нет новых непрочитанных сообщений. Дикая природа Скандинавии / Wildes Skandinavien [01-07 из 07] (2011) BDRip-AVC от ExKinoRay

2 | 5

8.18 ГБ

В этой теме нет новых непрочитанных сообщений. Дикая природа Скандинавии / Wildes Skandinavien [01-07 из 07] (2011) BDRip от ExKinoRay

2 | 7

4.44 ГБ

В этой теме нет новых непрочитанных сообщений. Дикая природа Скандинавии / Wildes Skandinavien [01-07 из 07] (2011) HDRip от R.G.RealMT

3 | 38

4.91 ГБ

В этой теме нет новых непрочитанных сообщений. Дикая природа Германии / Wildes Deutschland (2011/2012) BDRip 1080p от HDCLUB

74 | 54

58.43 ГБ

В этой теме нет новых непрочитанных сообщений. Дикая природа Японии / Wildes Japan (2010) BDRip 720p от R.G.RealMT | P1

1 | 3

4.35 ГБ




Вы не можете начинать темы
Вы не можете отвечать на сообщения
Вы не можете редактировать свои сообщения
Вы не можете удалять свои сообщения
Вы не можете добавлять вложения

Перейти:  
Для Мосгорсуда, Роскомнадзора и рекламодателей: mosgorsud-torrent[собачка]yandex.ru
 Вход
ppkBB3cker v.2 © 2008-2014 @ PPK
[ Time : 0.513s | 14 Queries | GZIP : Off ]

Торрент трекер RUTOR.IN, Не можете зайти на rutor.org? Какой новый адрес рутор? Какое зеркало рутор? Не работает rutor.org и зеркала? Тогда наш торрент специально для вас. Rutor.in неофициальное зеркало rutor. В случае если у Вас заблокирован rutor или вдруг Вы не можете на него зайти, то Вы без труда сможете скачать бесплатно и без рекламы последние новинки кино, игр, сериалов и прочего у нас, на Rutor.in. Не нужно использовать прокси, чтобы зайти на рутор, достаточно воспользоваться нашим ресурсом. Все новые фильмы, игры, сериалы, книги и музыка за 2013 и 2014 годы через торрент бесплатно. Скачивайте фильмы в хорошем качестве, игры для пк, xbox, playstation без регистрации. У нас вы найдете новые Зарубежные сериалы и Русские сериалы 2013, 2014, 2015 годов. Оставайтесь с нами, качайте любимые фильмы, игры, сериалы, книги и музыку.