img image001 image001 image001 image001 image001 image001 image001 image001 image001 image001 image001 image001 image001 image001 image001

Planets Sun Sun Sun
Статистика раздачи
Автор: Снежана | Размер: 636.28 МБ | Добавлен: 25 июл 2013
Раздают: 3    Качают: 1
Скачать торрент
Скачать торрент
Описание торрента

СообщениеДобавлено: 25 июл 2013 

#77

Информация о фильме
Название: Тайны пустыни Каракум
Оригинальное название: Secrets du desert de Karakoum
Год выхода: 2004
Жанр: Документальный
Режиссер: Марк Ямпольский

О фильме: Пустыня Каракумы в Туркмении хранит самые загадочные тайны Центральной Азии. Долгие года мы не знали, что здесь некогда жили люди. Лишь в 70-х годах пошлого века археологи стали находить следы поселений, относящихся к третьему тысячелетию до нашей эры. До той поры считалось, что древний мир существовал только вокруг великих городских цивилизаций Египта, Междуречья, Элама и Инда. Экспедиции в Каракумы выявили целый ряд поселений, раскинувшихся вдоль древнего торгового пути. Это цивилизация Оазиса, названная так потому, что её крупные центры принимали торговые караваны, путешествовавшие по древнему миру.
Страна: Франция / ARTE France
Выпущено в России: ТК "Моя Планета"
Продолжительность: 00:51:24
Перевод: Профессиональный (одноголосый, закадровый)

General
Complete name : Tajny.pustyni.Karakum.2004.SATRip.avi
Format : AVI
Format/Info : Audio Video Interleave
File size : 636 MiB
Duration : 51mn 24s
Overall bit rate : 1 731 Kbps
Writing application : VirtualDubMod 1.5.10.2 (build 2540/release)
Writing library : VirtualDubMod build 2540/release

Video
ID : 0
Format : MPEG-4 Visual
Format profile : Advanced Simple@L5
Format settings, BVOP : Yes
Format settings, QPel : No
Format settings, GMC : No warppoints
Format settings, Matrix : Default (MPEG)
Codec ID : XVID
Codec ID/Hint : XviD
Duration : 51mn 24s
Bit rate : 1 593 Kbps
Width : 704 pixels
Height : 400 pixels
Display aspect ratio : 16:9
Frame rate : 25.000 fps
Color space : YUV
Chroma subsampling : 4:2:0
Bit depth : 8 bits
Scan type : Progressive
Bits/(Pixel*Frame) : 0.226
Stream size : 586 MiB (92%)
Writing library : XviD 64

Audio
ID : 1
Format : MPEG Audio
Format version : Version 1
Format profile : Layer 3
Codec ID : 55
Codec ID/Hint : MP3
Duration : 51mn 24s
Bit rate mode : Constant
Bit rate : 128 Kbps
Channel(s) : 2 channels
Sampling rate : 48.0 KHz
Stream size : 47.1 MiB (7%)
Alignment : Aligned on interleaves
Interleave, duration : 40 ms (1.00 video frame)
Interleave, preload duration : 504 ms
Writing library : LAME3.98r
Encoding settings : -m s -V 4 -q 0 -lowpass 17 -b 128


Файл
Качество: SATRip
Формат: AVI
Видео кодек: XviD
Аудио кодек: MP3
Видео: 704x400 (1.76:1), 25 fps, XviD build 64 ~1592 kbps avg, 0.23 bit/pixel
Аудио: 48 kHz, MPEG Layer 3, 2 ch, ~128.00 kbps avg




   Похожие торренты   Торрент   Размер 
В этой теме нет новых непрочитанных сообщений. Тайны дикой природы Индии: Львы пустыни / Secrets of Wild India: Desert Lions (2012) HDTVRip-AVC | D

5 | 3

699.7 МБ

В этой теме нет новых непрочитанных сообщений. Тайны дикой природы Индии: Львы пустыни / Secrets of Wild India: Desert Lions (2012) HDTVRip | D

16 | 8

699.7 МБ

В этой теме нет новых непрочитанных сообщений. Тайны дикой природы Индии: Львы пустыни / Secrets of Wild India: Desert Lions (2011) HDTVRip 720р от RG MixTorrent

6 | 7

936.08 МБ

В этой теме нет новых непрочитанных сообщений. National Geographic: Последние тайны Третьего рейха: Лис Пустыни / Nazi underwold: Hitler`s desert fox (2011) DVB by Magy®

18 | 5

953.33 МБ

В этой теме нет новых непрочитанных сообщений. Принц пустыни / Мактуб - Закон Пустыни / Maktub: The Law Of The Desert (1991) DVDRip-AVC | P

71 | 22

6.4 ГБ

В этой теме нет новых непрочитанных сообщений. Повелитель пустыни / Il dominatore del deserto / le vainqueur du desert / Desert Raiders / Il Dominatore Del Deserto (1964) TVRip | P1

11 | 4

1.65 ГБ

В этой теме нет новых непрочитанных сообщений. Музейные тайны / Museum secrets [01-06] (2012) SATRip | P1

10 | 2

3.55 ГБ




Вы не можете начинать темы
Вы не можете отвечать на сообщения
Вы не можете редактировать свои сообщения
Вы не можете удалять свои сообщения
Вы не можете добавлять вложения

Перейти:  
Для Мосгорсуда, Роскомнадзора и рекламодателей: mosgorsud-torrent[собачка]yandex.ru
 Вход
ppkBB3cker v.2 © 2008-2014 @ PPK
[ Time : 0.109s | 15 Queries | GZIP : Off ]

Торрент трекер RUTOR.IN, Не можете зайти на rutor.org? Какой новый адрес рутор? Какое зеркало рутор? Не работает rutor.org и зеркала? Тогда наш торрент специально для вас. Rutor.in неофициальное зеркало rutor. В случае если у Вас заблокирован rutor или вдруг Вы не можете на него зайти, то Вы без труда сможете скачать бесплатно и без рекламы последние новинки кино, игр, сериалов и прочего у нас, на Rutor.in. Не нужно использовать прокси, чтобы зайти на рутор, достаточно воспользоваться нашим ресурсом. Все новые фильмы, игры, сериалы, книги и музыка за 2013 и 2014 годы через торрент бесплатно. Скачивайте фильмы в хорошем качестве, игры для пк, xbox, playstation без регистрации. У нас вы найдете новые Зарубежные сериалы и Русские сериалы 2013, 2014, 2015 годов. Оставайтесь с нами, качайте любимые фильмы, игры, сериалы, книги и музыку.