img image001 image001 image001 image001 image001 image001 image001 image001 image001 image001 image001 image001 image001 image001 image001

Planets Sun Sun Sun
Статистика раздачи
Автор: Снежана | Размер: 2.39 ГБ | Добавлен: 24 июл 2013
Раздают: 7    Качают: 3
Скачать торрент
Скачать торрент
Описание торрента

СообщениеДобавлено: 24 июл 2013 

Волки / Wolves (1999) 720р BDRip
от HQCLUB



Информация о фильме:
Название: Волки
Оригинальное название: Wolves
Год выхода: 1999
Жанр: документальный, короткометражка
Режиссер: Дэвид Дуглас
В ролях: Робби Робертсон

О фильме: Откройте для себя мир и историю волков с самолета, вертолета и суши. Вы увидите на примере одной стаи, как члены семейства играют, охотятся, путешествуют, воют и борются за выживание. Узнаете, почему восстановление популяции волков на западе Америки вызвало столько шумихи в СМИ, создав прецедент. Откроете древнюю связь между стадами буйволов и волков, а также, почему коренные американцы относятся к волку, как к своему духовному брату с начала времён. Встретитесь с волком, который путешествует по школам!



Релиз от -
Автор рипа: Sky™

Выпущено: США, Канада
Продолжительность: 00:39:44
Перевод: Профессиональный (Двухголосый закадровый) В.Курдов & Mak + Оригинальная звуковая дорожка
Субтитры: Русские Английские

Файл:
Формат: MKV
Качество: BDRip (источник: / Blu-Ray Disc / 1080p)
Видео: 1280x720 (1.78:1), 23.976 fps, x264@L4.1, crf ~7548 kbps
Аудио #1: 48 kHz, AC3 Dolby Digital, 3/2 (L,C,R,l,r) + LFE ch, ~448 kbps avg (RUS)
Аудио #2: 48 kHz, AC3 Dolby Digital, 3/2 (L,C,R,l,r) + LFE ch, ~448 kbps avg (ENG)
Размер: 2449.20 Mb


*

Полное имя : D:HQCLUBAVCVolki.1999.BDRip.720p.H264.AC3.-HQCLUB.mkv
Формат : Matroska
Размер файла : 2,39 Гбайт
Продолжительность : 39 м.
Общий поток : 8616 Кбит/сек
Дата кодирования : UTC 2012-01-01 09:40:18
Программа кодирования : mkvmerge v4.3.0 ('Escape from the Island') сборка от Sep 5 2010 10:30:51
Библиотека кодирования : libebml v1.0.0 + libmatroska v1.0.0

Видео
Идентификатор : 1
Формат : AVC
Формат/Информация : Advanced Video Codec
Профиль формата : High@L4.1
Параметр CABAC формата : Да
Параметр ReFrames формата : 5 кадры
Режим смешивания : Container profile=Unknown@4.1
Идентификатор кодека : V_MPEG4/ISO/AVC
Продолжительность : 39 м.
Битрейт : 7548 Кбит/сек
Ширина : 1280 пикс.
Высота : 720 пикс.
Соотношение сторон : 16:9
Частота кадров : 23,976 кадр/сек
Цветовое пространство : YUV
Подвыборка цветности : 4:2:0
Битовая глубина : 8 бит
Тип развёртки : Прогрессивная
Бит/(Пиксели*Кадры) : 0.342
Размер потока : 2,10 Гбайт (88%)
Заголовок : Волки / Wolves (1999) 720р BDRip by Sky™ | HQCLUB
Библиотека кодирования : x264 core 116 r2074 2641b9e
Настройки программы : cabac=1 / ref=5 / deblock=1:-2:-1 / analyse=0x3:0x113 / me=umh / subme=11 / psy=1 / psy_rd=1.15:0.15 / mixed_ref=1 / me_range=32 / chroma_me=1 / trellis=2 / 8x8dct=1 / cqm=0 / deadzone=21,11 / fast_pskip=1 / chroma_qp_offset=-5 / threads=3 / sliced_threads=0 / nr=0 / decimate=1 / interlaced=0 / bluray_compat=0 / constrained_intra=0 / bframes=5 / b_pyramid=2 / b_adapt=2 / b_bias=0 / direct=1 / weightb=1 / open_gop=0 / weightp=2 / keyint=250 / keyint_min=23 / scenecut=40 / intra_refresh=0 / rc_lookahead=40 / rc=crf / mbtree=0 / crf=19.5 / qcomp=0.60 / qpmin=10 / qpmax=51 / qpstep=4 / vbv_maxrate=62500 / vbv_bufsize=50000 / crf_max=0.0 / nal_hrd=none / ip_ratio=1.40 / pb_ratio=1.30 / aq=1:0.90

Аудио #1
Идентификатор : 2
Формат : AC-3
Формат/Информация : Audio Coding 3
Расширение режима : CM (complete main)
Идентификатор кодека : A_AC3
Продолжительность : 39 м.
Вид битрейта : Постоянный
Битрейт : 448 Кбит/сек
Канал(ы) : 6 канала(ов)
Расположение каналов : Front: L C R, Side: L R, LFE
Частота : 48,0 КГц
Битовая глубина : 16 бит
Размер потока : 127 Мбайт (5%)
Заголовок : Многоголосый AC3 5.1 @ 448 kbps
Язык : Russian

Аудио #2
Идентификатор : 3
Формат : AC-3
Формат/Информация : Audio Coding 3
Расширение режима : ME (music and effects)
Идентификатор кодека : A_AC3
Продолжительность : 39 м.
Вид битрейта : Постоянный
Битрейт : 448 Кбит/сек
Канал(ы) : 6 канала(ов)
Расположение каналов : Front: L C R, Side: L R, LFE
Частота : 48,0 КГц
Битовая глубина : 16 бит
Размер потока : 127 Мбайт (5%)
Заголовок : Оригинал AC3 5.1 @ 448 kbps

Текст #1
Идентификатор : 4
Формат : UTF-8
Идентификатор кодека : S_TEXT/UTF8
Идентификатор кодека/Информация : UTF-8 Plain Text
Заголовок : Полные
Язык : Russian

Текст #2
Идентификатор : 5
Формат : UTF-8
Идентификатор кодека : S_TEXT/UTF8
Идентификатор кодека/Информация : UTF-8 Plain Text
Заголовок : Полные

Меню
00:00:00.000 : en:00:00:00.000
00:04:07.497 : en:00:04:07.497
00:07:00.754 : en:00:07:00.754
00:08:30.969 : en:00:08:30.969
00:11:12.589 : en:00:11:12.589
00:16:11.512 : en:00:16:11.512
00:21:26.535 : en:00:21:26.535
00:27:53.213 : en:00:27:53.213
00:32:17.936 : en:00:32:17.936
00:34:11.508 : en:00:34:11.508
00:36:05.872 : en:00:36:05.872
00:38:34.812 : en:00:38:34.812

---[NoImage] x264 [info]: frame I:299 Avg QP:20.01 size:172561
---[NoImage] x264 [info]: frame P:11039 Avg QP:21.29 size: 77988
---[NoImage] x264 [info]: frame B:45827 Avg QP:23.89 size: 30294
---[NoImage] x264 [info]: consecutive B-frames: 1.9% 0.7% 2.6% 7.1% 8.1% 79.4%
---[NoImage] x264 [info]: mb I I16..4: 14.3% 70.7% 15.0%
---[NoImage] x264 [info]: mb P I16..4: 1.4% 10.7% 1.0% P16..4: 28.1% 33.9% 15.3% 0.0% 0.0% skip: 9.7%
---[NoImage] x264 [info]: mb B I16..4: 0.2% 2.4% 0.1% B16..8: 34.7% 18.0% 3.9% direct:12.3% skip:28.4% L0:36.3% L1:36.3% BI:27.4%
---[NoImage] x264 [info]: 8x8 transform intra:83.7% inter:50.7%
---[NoImage] x264 [info]: coded y,uvDC,uvAC intra: 97.2% 84.4% 67.2% inter: 43.0% 34.1% 8.0%
---[NoImage] x264 [info]: i16 v,h,dc,p: 8% 4% 49% 38%
---[NoImage] x264 [info]: i8 v,h,dc,ddl,ddr,vr,hd,vl,hu: 5% 9% 16% 9% 13% 10% 14% 9% 15%
---[NoImage] x264 [info]: i4 v,h,dc,ddl,ddr,vr,hd,vl,hu: 7% 7% 8% 9% 15% 13% 15% 11% 16%
---[NoImage] x264 [info]: i8c dc,h,v,p: 49% 24% 13% 14%
---[NoImage] x264 [info]: Weighted P-Frames: Y:15.2% UV:4.8%
---[NoImage] x264 [info]: ref P L0: 34.9% 12.2% 25.9% 11.3% 13.0% 2.6% 0.1%
---[NoImage] x264 [info]: ref B L0: 74.9% 17.6% 5.6% 1.9%
---[NoImage] x264 [info]: ref B L1: 94.3% 5.7%



   Похожие торренты   Торрент   Размер 
В этой теме нет новых непрочитанных сообщений. Волки / Wolves (1999) BDRip от HQCLUB

4 | 4

895.47 МБ

В этой теме нет новых непрочитанных сообщений. Волки / Wolves (2014) BDRip от HQCLUB | Лицензия

203 | 16

1.45 ГБ

В этой теме нет новых непрочитанных сообщений. Волки / Wolves (2016) WEB-DLRip 720р | L

17 | 2

3.42 ГБ

В этой теме нет новых непрочитанных сообщений. Волки / IMAX - Wolves (Дэвид Дуглас) [1999, документальный, LowHDRip] DVO

0 | 3

739.33 МБ

В этой теме нет новых непрочитанных сообщений. IMAX Волки / IMAX Wolves (1999) BDRip от HQ-VIDEO

4 | 3

745.27 МБ

В этой теме нет новых непрочитанных сообщений. Волки / Wolves (2014) BDRip | D

153 | 27

2.05 ГБ

В этой теме нет новых непрочитанных сообщений. Волки / Wolves (2014) BDRip-AVC | D

80 | 10

2.18 ГБ




Вы не можете начинать темы
Вы не можете отвечать на сообщения
Вы не можете редактировать свои сообщения
Вы не можете удалять свои сообщения
Вы не можете добавлять вложения

Перейти:  
Для Мосгорсуда, Роскомнадзора и рекламодателей: mosgorsud-torrent[собачка]yandex.ru
 Вход
ppkBB3cker v.2 © 2008-2014 @ PPK
[ Time : 0.038s | 15 Queries | GZIP : Off ]

cron