img image001 image001 image001 image001 image001 image001 image001 image001 image001 image001 image001 image001 image001 image001 image001

Planets Sun Sun Sun
Статистика раздачи
Автор: Снежана | Размер: 7.87 ГБ | Добавлен: 25 июл 2013
Раздают: 16    Качают: 3
Скачать торрент
Скачать торрент
Описание торрента

СообщениеДобавлено: 25 июл 2013 

#77

Информация о фильме
Название: Атлантида: Конец мира, рождение легенды
Оригинальное название: Atlantis: End of a World, Birth of a Legend
Жанр: Драма, научно-популярный
Год выхода: 2011
Режиссер: Тони Митчел
В ролях: Стефани Леонидас, Рис Ричи, Лэнгли Кирквуд, Айседора Вервей, Натали Бекер, Тони Капрари, Инге Бекманн, Дилан Эди, Вейн Харрисон,

О фильме:
Фильм о самом страшном стихийном бедствии античного мира, породившем миф об Атлантиде. В его создании принимали участие известные ученые – историки и археологи. Они помогли воссоздать и впервые представить на экране экзотический мир минойцев – народа мореплавателей с высокоразвитой и сложной системой религиозного культа и богатыми торговыми традициями. Актерам, исполнившим главные роли в фильме, удалось передать гордый и независимый характер минойцев, беззаветно любящих свою родину и готовых отдать жизнь за своих любимых. Вместе с героями фильма зрители станут очевидцами одного из самых страшных стихийных бедствий в истории человечества, воссозданного с помощью новейших СGI-технологий.



Выпущено: США, Германия, Франция, Великобритания, ЮАР, BBC
Продолжительность: 01:28:47
Перевод: Профессиональный (дублированный) [Первый канал]

Файл
Формат: MKV
Качество: BDRip 1080p
Видео: 10.7 mb/s, 1920x1080, 25 fps, 16:9
Аудио #1: AC3, 192 kb/s, 2 ch, 48 КГц, 16 бит [Дубляж, Первый канал]
Аудио #2: DTS, 1536 kb/s, 6 ch, 48 КГц, 16 бит [Оригинал, английский]
Размер: 7.87 GB
Сэмпл
Код:
Формат : Matroska
Версия формата : Version 2
Размер файла : 7,87 Гбайт
Продолжительность : 1 ч. 28 м.
Режим общего битрейта : Переменный
Общий поток : 12,7 Мбит/сек
Дата кодирования : UTC 2012-01-18 22:08:36
Программа кодирования : mkvmerge v5.2.1 ('A Far Off Place') built on Jan 2 2012 23:21:10
Библиотека кодирования : libebml v1.2.3 + libmatroska v1.3.0

Видео
Идентификатор : 1
Формат : AVC
Формат/Информация : Advanced Video Codec
Профиль формата : High@L4.0
Параметр CABAC формата : Да
Параметр ReFrames формата : 2 кадра
Идентификатор кодека : V_MPEG4/ISO/AVC
Продолжительность : 1 ч. 28 м.
Вид битрейта : Переменный
Битрейт : 10,7 Мбит/сек
Максимальный битрейт : 12,5 Мбит/сек
Ширина : 1920 пикселей
Высота : 1080 пикселей
Соотношение сторон : 16:9
Частота кадров : 25,000 кадров/сек
Цветовое пространство : YUV
Субдискретизация насыщенности : 4:2:0
Битовая глубина : 8 бит
Тип развёртки : Прогрессивная
Бит/(Пиксели*Кадры) : 0.207
Размер потока : 6,66 Гбайт (85%)
Default : Да
Forced : Нет

Аудио #1
Идентификатор : 2
Формат : AC-3
Формат/Информация : Audio Coding 3
Расширение режима : CM (complete main)
Идентификатор кодека : A_AC3
Продолжительность : 1 ч. 28 м.
Вид битрейта : Постоянный
Битрейт : 192 Кбит/сек
Каналы : 2 канала
Расположение каналов : Front: L R
Частота : 48,0 КГц
Битовая глубина : 16 бит
Метод сжатия : С потерями
Размер потока : 122 Мбайт (2%)
Заголовок : Дубляж
Язык : Russian
Default : Да
Forced : Нет

Аудио #2
Идентификатор : 3
Формат : DTS
Формат/Информация : Digital Theater Systems
Идентификатор кодека : A_DTS
Продолжительность : 1 ч. 28 м.
Вид битрейта : Постоянный
Битрейт : 1510 Кбит/сек
Каналы : 6 каналов
Расположение каналов : Front: L C R, Side: L R, LFE
Частота : 48,0 КГц
Битовая глубина : 16 бит
Метод сжатия : С потерями
Размер потока : 959 Мбайт (12%)
Язык : English
Default : Нет
Forced : Нет

Скриншоты




   Похожие торренты   Торрент   Размер 
В этой теме нет новых непрочитанных сообщений. Атлантида: Конец мира, рождение легенды / Atlantis: End of a World, Birth of a Legend (2011) BDRip-AVC от R.G. AVI AVC

19 | 2

1.46 ГБ

В этой теме нет новых непрочитанных сообщений. Атлантида: Конец мира, рождение легенды / Atlantis: End of a World, Birth of a Legend (2011) BDRip от HQCLUB | Лицензия

80 | 7

1.46 ГБ

В этой теме нет новых непрочитанных сообщений. Атлантида: Конец мира, рождение легенды / Atlantis: End of a World, Birth of a Legend (2011) BDRip [720p] от HQ-ViDEO

28 | 14

4.65 ГБ

В этой теме нет новых непрочитанных сообщений. Атлантида: Конец мира, рождение легенды / Atlantis: End of a World, Birth of a Legend (2011) DVD5

10 | 3

4.36 ГБ

В этой теме нет новых непрочитанных сообщений. BBC: Атлантида: Конец мира, рождение легенды / Atlantis: End of a World, Birth of a Legend (2011) HDRip

7 | 4

698.8 МБ

В этой теме нет новых непрочитанных сообщений. Атлантида: Конец мира, рождение легенды / Atlantis: End of a World, Birth of a Legend (2011) BDRemux

1 | 2

17.36 ГБ

В этой теме нет новых непрочитанных сообщений. Атлантида: Конец мира, рождение легенды / Atlantis: End of a World, Birth of a Legend (2011) DVDRip | КПК от Generalfilm

8 | 3

323.11 МБ




Вы не можете начинать темы
Вы не можете отвечать на сообщения
Вы не можете редактировать свои сообщения
Вы не можете удалять свои сообщения
Вы не можете добавлять вложения

Перейти:  
Для Мосгорсуда, Роскомнадзора и рекламодателей: mosgorsud-torrent[собачка]yandex.ru
 Вход
ppkBB3cker v.2 © 2008-2014 @ PPK
[ Time : 0.053s | 15 Queries | GZIP : Off ]

Торрент трекер RUTOR.IN, Не можете зайти на rutor.org? Какой новый адрес рутор? Какое зеркало рутор? Не работает rutor.org и зеркала? Тогда наш торрент специально для вас. Rutor.in неофициальное зеркало rutor. В случае если у Вас заблокирован rutor или вдруг Вы не можете на него зайти, то Вы без труда сможете скачать бесплатно и без рекламы последние новинки кино, игр, сериалов и прочего у нас, на Rutor.in. Не нужно использовать прокси, чтобы зайти на рутор, достаточно воспользоваться нашим ресурсом. Все новые фильмы, игры, сериалы, книги и музыка за 2013 и 2014 годы через торрент бесплатно. Скачивайте фильмы в хорошем качестве, игры для пк, xbox, playstation без регистрации. У нас вы найдете новые Зарубежные сериалы и Русские сериалы 2013, 2014, 2015 годов. Оставайтесь с нами, качайте любимые фильмы, игры, сериалы, книги и музыку.