img image001 image001 image001 image001 image001 image001 image001 image001 image001 image001 image001 image001 image001 image001 image001

Planets Sun Sun Sun
Статистика раздачи
Автор: Снежана | Размер: 3.04 ГБ | Добавлен: 25 июл 2013
Раздают: 3    Качают: 6
Скачать торрент
Скачать торрент
Описание торрента

СообщениеДобавлено: 25 июл 2013 

[imgright]http://i27.fastpic.ru/big/2012/0115/c5/b38a2fd2aef23ab97e63a892645603c5.jpg" />

Жанр: Документальный.
Год: 2010.
Студия: WVG Medien.
Страна: Германия.
Режиссер:
В ролях:

Описание: На Багамских островах лучшие пещерные дайверы погружаются в голубую бездну... Они исследуют подводные пещеры, наполненные загадками и дайверами, которым не удалось их покинуть живыми. В расчете на количество попыток, дайвинг - самый опасный спорт на земле. Им грозят обрушения скал, потеря сознания и паника. Они делают это ради острых ощущений, для того чтобы быть первыми и чтобы найти древние останки. Эти пещеры, голубые бездны, - жидкие хранилища времени, где ты сталкиваешься лицом к лицу с прошлым. Сейчас экстремальные дайверы пытаются раскрыть тайну затерянного мира. Но смогут ли они выжить в этой враждебной среде под давлением, под водой, под землей?

*********** Diving The Labyrinth / Blue Holes. Tauchen im Labyrinth (2010) ***********

Release Date: 30.01.2012

Release Info:
File Name .....: Pogruzhenie.V.Labirint.2010.RUS.BDRip.720p.h264.AC3.-HQ-ViDEO.mkv
Author ........: GYN

Runtime .......: 00:47:03 min
Video Format ..: MKV, H.264 codec
Video Bitrate .: 8 128 kbps
Bits per Pixel : 0.360 bit/pixel
Resolution ....: 1 280 x 720
Aspect Ratio ..: 1.78:1
Framerate .....: 25 fps

Audio First....: Russian AC3 Dolby Digital; 384.00 kbps; 5.1 Ch; 48 kHz
Subtitle.......:

File Size .....: 2,91 GB
Source.........: Blu-ray Disc

General
Complete name : Pogruzhenie.V.Labirint.2010.RUS.BDRip.720p.h264.AC3.-HQ-ViDEO.mkv
Format : Matroska
Format version : Version 2
File size : 2.91 GiB
Duration : 47mn 3s
Overall bit rate mode : Variable
Overall bit rate : 8 861 Kbps
Movie name : Diving The Labyrinth (2010)
Encoded date : UTC 2012-01-30 08:45:31
Writing application : mkvmerge v3.3.0 ('Language') built on Mar 24 2010 14:59:24
Writing library : libebml v0.8.0 + libmatroska v0.9.0

Video
ID : 1
Format : AVC
Format/Info : Advanced Video Codec
Format profile : High@L4.1
Format settings, CABAC : Yes
Format settings, ReFrames : 6 frames
Codec ID : V_MPEG4/ISO/AVC
Duration : 47mn 3s
Bit rate mode : Variable
Bit rate : 8 128 Kbps
Width : 1 280 pixels
Height : 720 pixels
Display aspect ratio : 16:9
Frame rate : 25.000 fps
Color space : YUV
Chroma subsampling : 4:2:0
Bit depth : 8 bits
Scan type : Progressive
Bits/(Pixel*Frame) : 0.360
Stream size : 2.73 GiB (94%)
Title : Encoded by GYN

Audio
ID : 2
Format : AC-3
Format/Info : Audio Coding 3
Mode extension : CM (complete main)
Codec ID : A_AC3
Duration : 47mn 3s
Bit rate mode : Constant
Bit rate : 384 Kbps
Channel(s) : 6 channels
Channel positions : Front: L C R, Side: L R, LFE
Sampling rate : 48.0 KHz
Bit depth : 16 bits
Compression mode : Lossy
Stream size : 129 MiB (4%)
Title : VO (Tobilevich)
Language : Russian


Язык: Авторский перевод Тобилевич + Английская дорожка (384/Отдельно).

Субтитры: Нет.

Скриншоты для оценки качества:





Релиз:


   Похожие торренты   Торрент   Размер 
В этой теме нет новых непрочитанных сообщений. National Geographic: Погружение в лабиринт / Diving the Labyrinth / Blue Holes. Tauchen im Labyrinth (2010) HDRip от R.G.RealMT

2 | 3

774.65 МБ

В этой теме нет новых непрочитанных сообщений. National Geographic: Погружение в лабиринт / Diving The Labyrinth / Blue Holes. Tauchen im Labyrinth (2010) HDRip от Generalfilm

4 | 17

1.36 ГБ

В этой теме нет новых непрочитанных сообщений. Лабиринт / Labyrinth (1986) BDRip от HQ-VIDEO

4 | 3

2.27 ГБ

В этой теме нет новых непрочитанных сообщений. Лабиринт Фавна / El Laberinto del fauno / Pan's Labyrinth (2006) BDRip PROPER от HQ-ViDEO

67 | 3

2.18 ГБ

В этой теме нет новых непрочитанных сообщений. Лабиринт / Labyrinth (1986) BDRip 720p от Leonardo | P, A

13 | 2

10.23 ГБ

В этой теме нет новых непрочитанных сообщений. Лабиринт / Labyrinth (1986) BDRip 720p от NOLIMITS-TEAM

0 | 2

2.74 ГБ

В этой теме нет новых непрочитанных сообщений. Лабиринт / Labyrinth [S01] (2012) BDRip 720p от Youtracker | P | лицензия

5 | 4

8.42 ГБ




Вы не можете начинать темы
Вы не можете отвечать на сообщения
Вы не можете редактировать свои сообщения
Вы не можете удалять свои сообщения
Вы не можете добавлять вложения

Перейти:  
Для Мосгорсуда, Роскомнадзора и рекламодателей: mosgorsud-torrent[собачка]yandex.ru
 Вход
ppkBB3cker v.2 © 2008-2014 @ PPK
[ Time : 0.031s | 14 Queries | GZIP : Off ]

Торрент трекер RUTOR.IN, Не можете зайти на rutor.org? Какой новый адрес рутор? Какое зеркало рутор? Не работает rutor.org и зеркала? Тогда наш торрент специально для вас. Rutor.in неофициальное зеркало rutor. В случае если у Вас заблокирован rutor или вдруг Вы не можете на него зайти, то Вы без труда сможете скачать бесплатно и без рекламы последние новинки кино, игр, сериалов и прочего у нас, на Rutor.in. Не нужно использовать прокси, чтобы зайти на рутор, достаточно воспользоваться нашим ресурсом. Все новые фильмы, игры, сериалы, книги и музыка за 2013 и 2014 годы через торрент бесплатно. Скачивайте фильмы в хорошем качестве, игры для пк, xbox, playstation без регистрации. У нас вы найдете новые Зарубежные сериалы и Русские сериалы 2013, 2014, 2015 годов. Оставайтесь с нами, качайте любимые фильмы, игры, сериалы, книги и музыку.