img image001 image001 image001 image001 image001 image001 image001 image001 image001 image001 image001 image001 image001 image001 image001

Planets Sun Sun Sun
Статистика раздачи
Автор: Снежана | Размер: 1.7 ГБ | Добавлен: 25 июл 2013
Раздают: 0    Качают: 2
Скачать торрент
Скачать торрент
Описание торрента

СообщениеДобавлено: 25 июл 2013 



День, когда Земля почти вымерла
The Day The Earth Nearly Died

Информация о фильме
Год выхода: 2008
Производство: США
Жанр: Научно-популярный, Документальный, Познавательный
Перевод: Профессиональный двухголосый закадровый



250 млн. лет, материк Пангея, пермско-триасовое "великое вымирание" до 90% всех видов, предполагаемые причины: Великое сибирское извержение или падение гигантского астероида в Антарктиде. Высказывается также гипотеза о взаимосвязи этих событий: падение гигантского астероида (до 30 км в поперечнике) в Антарктиде вызвало извержение в антиподальной точке, приходящейся как раз на сибирские трапы. Матмоделирование на суперкомпе подтверждает это предположение. Тогда своим господством, как и вымиранием динозавры обязаны космосу.



Информация о файле:
Качество: HDTVRip
Видеоконтейнер: MKV
Продолжительность: 00:39:09
Размер: 1,7 гб
Видео: H.264, 1280x720, 5604 Кбит/с, 30кадров
Звук: AC3, Стерео, 192 Кбит
General
Complete name : C:The Day The Earth Nearly Died.mkv
Format : AVI
Format/Info : Audio Video Interleave
File size : 1.70 GiB
Duration : 39mn 9s
Overall bit rate : 5 814 Kbps
Writing application : VirtualDubMod 1.5.10.2 (build 2542/release)
Writing library : VirtualDubMod build 2542/release
Video
ID : 0
Format : AVC
Format/Info : Advanced Video Codec
Format profile : High@L4.1
Format settings, CABAC : Yes
Format settings, ReFrames : 4 frames
Codec ID : AVC1
Duration : 39mn 9s
Bit rate mode : Variable
Bit rate : 5 604 Kbps
Maximum bit rate : 10 000 Kbps
Width : 1 280 pixels
Height : 720 pixels
Display aspect ratio : 16:9
Frame rate : 30.000 fps
Original frame rate : 29.970 fps
Standard : NTSC
Color space : YUV
Chroma subsampling : 4:2:0
Bit depth : 8 bits
Scan type : Progressive
Bits/(Pixel*Frame) : 0.203
Stream size : 1.53 GiB (90%)
Color primaries : BT.709-5, BT.1361, IEC 61966-2-4, SMPTE RP177
Transfer characteristics : BT.709-5, BT.1361
Matrix coefficients : BT.709-5, BT.1361, IEC 61966-2-4 709, SMPTE RP177
Audio #1
ID : 1
Format : AC-3
Format/Info : Audio Coding 3
Format profile : Dolby Digital
Mode extension : CM (complete main)
Codec ID : 2000
Duration : 39mn 9s
Bit rate mode : Constant
Bit rate : 192 Kbps
Channel(s) : 2 channels
Channel positions : Front: L R
Sampling rate : 48.0 KHz
Bit depth : 16 bits
Compression mode : Lossy
Stream size : 53.8 MiB (3%)
Alignment : Split accross interleaves
Interleave, duration : 33 ms (1.00 video frame)
Interleave, preload duration : 500 ms

Скриншоты (клик - увеличить):




   Похожие торренты   Торрент   Размер 
В этой теме нет новых непрочитанных сообщений. День, когда Земля почти вымерла / The Day The Earth Nearly Died (2008) HDTVRip by NK

5 | 3

504.21 МБ

В этой теме нет новых непрочитанных сообщений. Земные катаклизмы. Кремационная камера Земля / EarthShocks. Incinerator Earth (2008) HDTVRip от КОля

2 | 6

894.43 МБ

В этой теме нет новых непрочитанных сообщений. День, когда Земля остановилась / The Day the Earth Stood Still (2008) HDTVRip от Deadmauvlad | 2xD,A | Open Matte

276 | 22

2.18 ГБ

В этой теме нет новых непрочитанных сообщений. День, когда Земля остановилась / The Day the Earth Stood Still (2008) HDTVRip от Deadmauvlad | D | Open Matte

1276 | 81

1.46 ГБ

В этой теме нет новых непрочитанных сообщений. Периметр 2: Новая Земля / Perimeter 2: New Earth (2008) PC

58 | 4

2.23 ГБ

В этой теме нет новых непрочитанных сообщений. Периметр 2: Новая Земля / Perimeter 2: New Earth (2008) PC

62 | 15

2.64 ГБ

В этой теме нет новых непрочитанных сообщений. Когда Земля остановилась / The Day the Earth Stopped (2008) DVDRip

2 | 1

1.45 ГБ




Вы не можете начинать темы
Вы не можете отвечать на сообщения
Вы не можете редактировать свои сообщения
Вы не можете удалять свои сообщения
Вы не можете добавлять вложения

Перейти:  
Для Мосгорсуда, Роскомнадзора и рекламодателей: mosgorsud-torrent[собачка]yandex.ru
 Вход
ppkBB3cker v.2 © 2008-2014 @ PPK
[ Time : 0.032s | 16 Queries | GZIP : Off ]

Торрент трекер RUTOR.IN, Не можете зайти на rutor.org? Какой новый адрес рутор? Какое зеркало рутор? Не работает rutor.org и зеркала? Тогда наш торрент специально для вас. Rutor.in неофициальное зеркало rutor. В случае если у Вас заблокирован rutor или вдруг Вы не можете на него зайти, то Вы без труда сможете скачать бесплатно и без рекламы последние новинки кино, игр, сериалов и прочего у нас, на Rutor.in. Не нужно использовать прокси, чтобы зайти на рутор, достаточно воспользоваться нашим ресурсом. Все новые фильмы, игры, сериалы, книги и музыка за 2013 и 2014 годы через торрент бесплатно. Скачивайте фильмы в хорошем качестве, игры для пк, xbox, playstation без регистрации. У нас вы найдете новые Зарубежные сериалы и Русские сериалы 2013, 2014, 2015 годов. Оставайтесь с нами, качайте любимые фильмы, игры, сериалы, книги и музыку.