img image001 image001 image001 image001 image001 image001 image001 image001 image001 image001 image001 image001 image001 image001 image001

Planets Sun Sun Sun
Статистика раздачи
Автор: Снежана | Размер: 4.36 ГБ | Добавлен: 25 июл 2013
Раздают: 10    Качают: 3
Скачать торрент
Скачать торрент
Описание торрента

СообщениеДобавлено: 25 июл 2013 

Атлантида: Конец мира, рождение легенды / Atlantis: End of a World, Birth of a Legend (2011) DVD5



Информация о фильме
Название: Атлантида: Конец мира, рождение легенды
Оригинальное название: Atlantis: End of a World, Birth of a Legend
Год выхода: 2011
Жанр: драма
Режиссер: Тони Митчел
В ролях: Стефани Леонидас, Рис Ричи, Лэнгли Кирквуд, Айседора Вервей, Натали Бекер, Тони Капрари, Инге Бекманн, Дилан Эди, Вейн Харрисон

О фильме: Картина о самом страшном стихийном бедствии античного мира, породившем миф об Атлантиде. В его создании принимали участие известные ученые — историки и археологи. Они помогли воссоздать и впервые представить на экране экзотический мир минойцев — народа мореплавателей с высокоразвитой и сложной системой религиозного культа и богатыми торговыми традициями. Актерам, исполнившим главные роли в фильме, удалось передать гордый и независимый характер минойцев, беззаветно любящих свою родину и готовых отдать жизнь за своих любимых.


Страна: США, Германия, Франция, Великобритания, ЮАР
Студия: BBC Northern Ireland, Erste Weltweit Medien, Moonlighting Atlantis Productions
Время: 01:28:47
Перевод: Профессиональный (дублированный)

Файл
Видеокодек: MPEG-2
Качество: DVD5
Видео: 720x576@1024x576 (PAL 16:9), ≈6219 kbps, 23 fps
Аудио #1: AC3, 2 channel, 192 kbps/s | Оригинал
Аудио #2: AC3, 6 channel, 384 kbps/s | Русский
Субтитры: Не имеются

Скриншоты



Общее
Полное имя : VTS_01_1.VOB
Формат : MPEG-PS
Размер файла : 1000 Мбайт
Продолжительность : 20 м.
Режим общего битрейта : Переменный
Общий поток : 6933 Кбит/сек

Видео
Идентификатор : 224 (0xE0)
Формат : MPEG Video
Версия формата : Version 2
Профиль формата : Main@Main
Параметр BVOP формата : Да
Параметр матрицы формата : Выборочная
Продолжительность : 20 м.
Вид битрейта : Переменный
Битрейт : 6219 Кбит/сек
Максимальный битрейт : 9000 Кбит/сек
Ширина : 720 пикселей
Высота : 576 пикселей
Соотношение сторон : 16:9
Частота кадров : 25,000 кадров/сек
Стандарт вещания : PAL
Цветовое пространство : YUV
Субдискретизация насыщенности : 4:2:0
Битовая глубина : 8 бит
Тип развёртки : Прогрессивная
Метод сжатия : С потерями
Бит/(Пиксели*Кадры) : 0.600
Размер потока : 897 Мбайт (90%)

Аудио #1
Идентификатор : 189 (0xBD)-128 (0x80)
Формат : AC-3
Формат/Информация : Audio Coding 3
Расширение режима : CM (complete main)
Режим смешивания : DVD-Video
Продолжительность : 20 м.
Вид битрейта : Постоянный
Битрейт : 192 Кбит/сек
Каналы : 2 канала
Расположение каналов : Front: L R
Частота : 48,0 КГц
Битовая глубина : 16 бит
Метод сжатия : С потерями
Размер потока : 27,7 Мбайт (3%)

Аудио #2
Идентификатор : 189 (0xBD)-129 (0x81)
Формат : AC-3
Формат/Информация : Audio Coding 3
Расширение режима : CM (complete main)
Режим смешивания : DVD-Video
Продолжительность : 20 м.
Вид битрейта : Постоянный
Битрейт : 384 Кбит/сек
Каналы : 6 каналов
Расположение каналов : Front: L C R, Side: L R, LFE
Частота : 48,0 КГц
Битовая глубина : 16 бит
Метод сжатия : С потерями
Размер потока : 55,4 Мбайт (6%)



   Похожие торренты   Торрент   Размер 
В этой теме нет новых непрочитанных сообщений. Атлантида: Конец мира, рождение легенды / Atlantis: End of a World, Birth of a Legend (2011) BDRemux

1 | 2

17.36 ГБ

В этой теме нет новых непрочитанных сообщений. BBC: Атлантида: Конец мира, рождение легенды / Atlantis: End of a World, Birth of a Legend (2011) HDRip

7 | 4

698.8 МБ

В этой теме нет новых непрочитанных сообщений. Атлантида: Конец мира, рождение легенды / Atlantis: End of a World, Birth of a Legend (2011) BDRip-AVC от R.G. AVI AVC

19 | 2

1.46 ГБ

В этой теме нет новых непрочитанных сообщений. Атлантида: Конец мира, рождение легенды / Atlantis: End of a World, Birth of a Legend (2011) DVDRip | КПК от Generalfilm

8 | 3

323.11 МБ

В этой теме нет новых непрочитанных сообщений. Атлантида: Конец мира, рождение легенды / Atlantis: End of a World, Birth of a Legend (2011) BDRip 1080p

16 | 3

7.87 ГБ

В этой теме нет новых непрочитанных сообщений. Атлантида: Конец мира, рождение легенды / Atlantis: End of a World, Birth of a Legend (2011) BDRip [720p] от HQ-ViDEO

28 | 14

4.65 ГБ

В этой теме нет новых непрочитанных сообщений. Атлантида: Конец мира, рождение легенды / Atlantis: End of a World, Birth of a Legend (2011) BDRip от HQCLUB | Лицензия

80 | 7

1.46 ГБ




Вы не можете начинать темы
Вы не можете отвечать на сообщения
Вы не можете редактировать свои сообщения
Вы не можете удалять свои сообщения
Вы не можете добавлять вложения

Перейти:  
Для Мосгорсуда, Роскомнадзора и рекламодателей: mosgorsud-torrent[собачка]yandex.ru
 Вход
ppkBB3cker v.2 © 2008-2014 @ PPK
[ Time : 0.028s | 16 Queries | GZIP : Off ]

Торрент трекер RUTOR.IN, Не можете зайти на rutor.org? Какой новый адрес рутор? Какое зеркало рутор? Не работает rutor.org и зеркала? Тогда наш торрент специально для вас. Rutor.in неофициальное зеркало rutor. В случае если у Вас заблокирован rutor или вдруг Вы не можете на него зайти, то Вы без труда сможете скачать бесплатно и без рекламы последние новинки кино, игр, сериалов и прочего у нас, на Rutor.in. Не нужно использовать прокси, чтобы зайти на рутор, достаточно воспользоваться нашим ресурсом. Все новые фильмы, игры, сериалы, книги и музыка за 2013 и 2014 годы через торрент бесплатно. Скачивайте фильмы в хорошем качестве, игры для пк, xbox, playstation без регистрации. У нас вы найдете новые Зарубежные сериалы и Русские сериалы 2013, 2014, 2015 годов. Оставайтесь с нами, качайте любимые фильмы, игры, сериалы, книги и музыку.