img image001 image001 image001 image001 image001 image001 image001 image001 image001 image001 image001 image001 image001 image001 image001

Planets Sun Sun Sun
Статистика раздачи
Автор: Снежана | Размер: 409.4 МБ | Добавлен: 24 июл 2013, 17:30
Раздают: 57    Качают: 8
Скачать торрент
Скачать торрент
Описание торрента

СообщениеДобавлено: 24 июл 2013, 17:30 

#77

Информация о фильме
Название: Лего
Оригинальное название: Lego
Год выхода: 2011
Жанр: документальный, научно - популярный
Выпущено: National Geographic
Перевод: профессиональный одноголосный

О фильме:
Дизайнеры игрушек проводят исследования для нового издания самого продаваемого конструктора на планете .
На создание этого набора уйдут годы проектирования и разработки, тонны пластика, армия роботов, покрасочные линии, автоматизированные упаковочные машины и огромная, всеобъемлющая система распространения .
Все начинается с простого, соединяющегося кирпичика и вырастает во всемирную империю игрушек LEGO !!
Общее
Формат : MPEG-4
Профиль формата : Base Media
Идентификатор кодека : isom
Размер файла : 409 Мбайт
Продолжительность : 45 м.
Режим общего битрейта : Переменный
Общий поток : 1268 Кбит/сек
Дата кодирования : UTC 2012-03-08 17:44:15
Дата пометки : UTC 2012-03-08 17:44:15
Программа кодирования : My MP4Box GUI 0.5.5.4

Видео
Идентификатор : 1
Формат : AVC
Формат/Информация : Advanced Video Codec
Профиль формата : High@L3.1
Параметр CABAC формата : Да
Параметр ReFrames формата : 8 кадров
Идентификатор кодека : avc1
Идентификатор кодека/Информация : Advanced Video Coding
Продолжительность : 45 м.
Битрейт : 1200 Кбит/сек
Максимальный битрейт : 4889 Кбит/сек
Ширина : 704 пикселя
Высота : 400 пикселей
Соотношение сторон : 16:9
Режим частоты кадров : Постоянный
Частота кадров : 25,000 кадров/сек
Цветовое пространство : YUV
Субдискретизация насыщенности : 4:2:0
Битовая глубина : 8 бит
Тип развёртки : Прогрессивная
Бит/(Пиксели*Кадры) : 0.170
Размер потока : 387 Мбайт (95%)
Заголовок : Video
Библиотека кодирования : x264 core 119 r2106 07efeb4
Настройки программы : cabac=1 / ref=8 / deblock=1:0:0 / analyse=0x3:0x133 / me=umh / subme=9 / psy=1 / psy_rd=1.00:0.00 / mixed_ref=1 / me_range=16 / chroma_me=1 / trellis=2 / 8x8dct=1 / cqm=0 / deadzone=21,11 / fast_pskip=1 / chroma_qp_offset=-2 / threads=6 / sliced_threads=0 / nr=0 / decimate=1 / interlaced=0 / bluray_compat=0 / constrained_intra=0 / bframes=3 / b_pyramid=2 / b_adapt=2 / b_bias=0 / direct=3 / weightb=1 / open_gop=0 / weightp=2 / keyint=250 / keyint_min=25 / scenecut=40 / intra_refresh=0 / rc_lookahead=60 / rc=2pass / mbtree=1 / bitrate=1200 / ratetol=1.0 / qcomp=0.60 / qpmin=0 / qpmax=69 / qpstep=4 / cplxblur=20.0 / qblur=0.5 / ip_ratio=1.40 / aq=1:1.00
Дата кодирования : UTC 2012-03-09 17:02:50
Дата пометки : UTC 2012-03-08 17:44:25

Аудио
Идентификатор : 2
Формат : AAC
Формат/Информация : Advanced Audio Codec
Профиль формата : LC
Идентификатор кодека : 40
Продолжительность : 45 м.
Вид битрейта : Переменный
Битрейт : 64,0 Кбит/сек
Максимальный битрейт : 66,9 Кбит/сек
Каналы : 1 канал
Расположение каналов : Front: C
Частота : 48,0 КГц
Метод сжатия : С потерями
Размер потока : 20,7 Мбайт (5%)
Дата кодирования : UTC 2012-03-08 17:44:25
Дата пометки : UTC 2012-03-08 17:44:25





   Похожие торренты   Торрент   Размер 
В этой теме нет новых непрочитанных сообщений. National Geographic: Мегазаводы: Уильямс F1 / Megafactories: Williams F1 (2011) TVRip-AVC

0 | 5

340.47 МБ

В этой теме нет новых непрочитанных сообщений. National Geographic: Мегазаводы: Лотус Эвора / Megafactories: Lotus Evora (2011) TVRip-AVC

1 | 3

405.36 МБ

В этой теме нет новых непрочитанных сообщений. National Geographic. Мегазаводы: Грузовики Мерседес / National Geographic. Megafactories: Mercedes Overhaul (2011) SATRip

8 | 3

621.43 МБ

В этой теме нет новых непрочитанных сообщений. National Geographic: Суперсооружения. Мегазаводы: Ауди R8 / National Geographic: MegaStructures. MegaFactories: Audi R8 (2009) SATRip

10 | 5

1.04 ГБ

В этой теме нет новых непрочитанных сообщений. National Geographic : Мегазаводы: Ягуар-XJ / Megafactories: Jaguar XJ (2011) SATRip by Alex Smit

1 | 4

651.33 МБ

В этой теме нет новых непрочитанных сообщений. National Geographic : Мегазаводы: Хайнекен / Megafactories: Heineken (2011) SATRip by Alex Smit

2 | 10

661.43 МБ

В этой теме нет новых непрочитанных сообщений. National Geographic: Мегазаводы: Суперавтомобили: Порше-911 / Megafactories: Supercars: Porsche 911 (2011) SATRip by Alex Smit

11 | 2

661.5 МБ




Вы не можете начинать темы
Вы не можете отвечать на сообщения
Вы не можете редактировать свои сообщения
Вы не можете удалять свои сообщения
Вы не можете добавлять вложения

Перейти:  
Для Мосгорсуда, Роскомнадзора и рекламодателей: mosgorsud-torrent[собачка]yandex.ru
Настройки
ppkBB3cker v.2 © 2008-2014 @ PPK
[ Time : 0.611s | 16 Queries | GZIP : Off ]
CGP [Extreme] output time : 0.00020s | 0 Queries | GZIP : Off

Торрент трекер RUTOR.IN, Не можете зайти на rutor.org? Какой новый адрес рутор? Какое зеркало рутор? Не работает rutor.org и зеркала? Тогда наш торрент специально для вас. Rutor.in неофициальное зеркало rutor. В случае если у Вас заблокирован rutor или вдруг Вы не можете на него зайти, то Вы без труда сможете скачать бесплатно и без рекламы последние новинки кино, игр, сериалов и прочего у нас, на Rutor.in. Не нужно использовать прокси, чтобы зайти на рутор, достаточно воспользоваться нашим ресурсом. Все новые фильмы, игры, сериалы, книги и музыка за 2013 и 2014 годы через торрент бесплатно. Скачивайте фильмы в хорошем качестве, игры для пк, xbox, playstation без регистрации. У нас вы найдете новые Зарубежные сериалы и Русские сериалы 2013, 2014, 2015 годов. Оставайтесь с нами, качайте любимые фильмы, игры, сериалы, книги и музыку.