img image001 image001 image001 image001 image001 image001 image001 image001 image001 image001 image001 image001 image001 image001 image001

Planets Sun Sun Sun
Статистика раздачи
Автор: Снежана | Размер: 345.78 МБ | Добавлен: 25 июл 2013
Раздают: 91    Качают: 6
Скачать торрент
Скачать торрент
Описание торрента

СообщениеДобавлено: 25 июл 2013 

Век эгоизма. Часть 3 – В твоей голове сидит полицейский, которого нужно уничтожить / The Century of the Self. Part 3 - There is a Policeman Inside All Our Heads: He Must Be Destroyed



Год выпуска: 2002
Страна: Великобритания
Жанр: документальный
Продолжительность: 00:58:36
Перевод: Профессиональный (одноголосый)
Русские субтитры: нет

Режиссер: Адам Кёртис
В ролях:
Вернер Эрхард
Мартин С. Бергманн
Тони Блэр
Билл Клинтон
Адам Кертис
Роберт Рич
Вильгельм Райх

Описание: Это сериал о том, как идеи Зигмунда Фрейда о бессознательном были использованы власть имущими для управления поведением масс в эпоху демократии.

Идеи Фрейда распространились по всей Америке в 50-х годах двадцатого века. Они распространялись благодаря усилиям дочери Фрейда Анны и его племянника Эдварда Бернейса. Он сделал теории Фрейда центральным стержнем рекламы и маркетинга. Оба они верили, что в основе каждого человеческого существа находится скрытое иррациональное начало, которое необходимо контролировать –  как для блага самого человека, так и ради стабильности общества.
Но оппоненты, которые говорили, что фрейдисты неправы в своих представлениях о человеческой природе, были уже готовы отстранить наследников Фрейда от власти. Внутреннюю сущность человека не надо подавлять и контролировать, ее надо поощрять к самовыражению. Благодаря этому появится новый тип сильной личности и лучшее общество.
Но результаты этой революции оказались совершенно противоположными. Они привели к появлению замкнутых на себя, уязвимых и, прежде всего, жадных людей. Людей, подверженных манипуляциям со стороны бизнеса и политики в гораздо большей мере, чем когда-либо ранее.
Стоящие у власти теперь будут контролировать сознание людей, не подавляя их бессознательное начало, а потакая его бесконечным желаниям.

Релиз:

Доп. информация:
Смотрите также:
Библия 21 века DVD-Video №1 - Новый мировой порядок
Высшая Социология (Григорий Климов)
Князь Мира Сего - Григорий Климов
Психиатрия индустрия смерти

Качество: TVRip
Формат: AVI
Видео кодек: DivX 5
Аудио кодек: MP3
Видео: 640x480 (1.33:1), 29.970 fps, DivX Codec 6.8.5/6.9.1 ~749 kbps avg, 0.08 bit/pixel
Аудио: 48 kHz, MPEG Layer 3, 1 ch, ~64.00 kbps avg
Format : AVI
Format/Info : Audio Video Interleave
File size : 346 MiB
Duration : 58mn 36s
Overall bit rate : 825 Kbps
Writing application : VirtualDubMod 1.5.10.2 (build 2542/release)
Writing library : VirtualDubMod build 2542/release

Video
ID : 0
Format : MPEG-4 Visual
Format settings, BVOP : 3
Format settings, QPel : No
Format settings, GMC : No warppoints
Format settings, Matrix : Default (H.263)
Muxing mode : Packed bitstream
Codec ID : DX50
Codec ID/Hint : DivX 5
Duration : 58mn 36s
Bit rate : 749 Kbps
Width : 640 pixels
Height : 480 pixels
Display aspect ratio : 4:3
Frame rate : 29.970 fps
Color space : YUV
Chroma subsampling : 4:2:0
Bit depth : 8 bits
Scan type : Progressive
Compression mode : Lossy
Bits/(Pixel*Frame) : 0.081
Stream size : 314 MiB (91%)
Writing library : DivX 6.8.5 (UTC 2009-08-20)

Audio
ID : 1
Format : MPEG Audio
Format version : Version 1
Format profile : Layer 3
Codec ID : 55
Codec ID/Hint : MP3
Duration : 58mn 35s
Bit rate mode : Constant
Bit rate : 64.0 Kbps
Channel(s) : 1 channel
Sampling rate : 48.0 KHz
Compression mode : Lossy
Stream size : 26.8 MiB (8%)
Alignment : Split accross interleaves
Interleave, duration : 33 ms (1.00 video frame)
Interleave, preload duration : 500 ms











   Похожие торренты   Торрент   Размер 
В этой теме нет новых непрочитанных сообщений. BBC: Век эгоизма. Часть 1 - Машины счастья / BBC: The Century of the Self. Part 1 - Happiness machines (2002) TVRip

101 | 7

307.86 МБ

В этой теме нет новых непрочитанных сообщений. BBC: Век эгоизма. Часть 4 – Вся власть Хомячкам / The Century of the Self. Part 4 - Eight people sipping wine in Kettering (2002) TVRip

70 | 3

385.23 МБ

В этой теме нет новых непрочитанных сообщений. BBC: Век эгоизма. (Век личности). Часть 2 – Конструирование согласия / BBC: The Century of the Self. Part 2 - The Engineering of Consent (2002) DVDRip

33 | 4

314.69 МБ

В этой теме нет новых непрочитанных сообщений. Смеющийся полицейский / The Laughing Policeman (1973) DVDRip-AVC

9 | 12

2.04 ГБ

В этой теме нет новых непрочитанных сообщений. Смеющийся полицейский / The Laughing Policeman (1973) HDRip от Koenig | A

6 | 0

1.58 ГБ

В этой теме нет новых непрочитанных сообщений. Земфира / Zемфира - Жить в твоей голове (2013) FLAC

22 | 3

222.34 МБ

В этой теме нет новых непрочитанных сообщений. Энергия из вакуума. Часть 6 - Радиантная энергия изнутри / Energy from the vacuum. Part 6 - Inside radiant energy (2009) DVDRip

17 | 2

389.23 МБ




Вы не можете начинать темы
Вы не можете отвечать на сообщения
Вы не можете редактировать свои сообщения
Вы не можете удалять свои сообщения
Вы не можете добавлять вложения

Перейти:  
Для Мосгорсуда, Роскомнадзора и рекламодателей: mosgorsud-torrent[собачка]yandex.ru
 Вход
ppkBB3cker v.2 © 2008-2014 @ PPK
[ Time : 0.026s | 15 Queries | GZIP : Off ]

Торрент трекер RUTOR.IN, Не можете зайти на rutor.org? Какой новый адрес рутор? Какое зеркало рутор? Не работает rutor.org и зеркала? Тогда наш торрент специально для вас. Rutor.in неофициальное зеркало rutor. В случае если у Вас заблокирован rutor или вдруг Вы не можете на него зайти, то Вы без труда сможете скачать бесплатно и без рекламы последние новинки кино, игр, сериалов и прочего у нас, на Rutor.in. Не нужно использовать прокси, чтобы зайти на рутор, достаточно воспользоваться нашим ресурсом. Все новые фильмы, игры, сериалы, книги и музыка за 2013 и 2014 годы через торрент бесплатно. Скачивайте фильмы в хорошем качестве, игры для пк, xbox, playstation без регистрации. У нас вы найдете новые Зарубежные сериалы и Русские сериалы 2013, 2014, 2015 годов. Оставайтесь с нами, качайте любимые фильмы, игры, сериалы, книги и музыку.