img image001 image001 image001 image001 image001 image001 image001 image001 image001 image001 image001 image001 image001 image001 image001

Planets Sun Sun Sun
Статистика раздачи
Автор: Снежана | Размер: 3.99 ГБ | Добавлен: 25 июл 2013
Раздают: 9    Качают: 5
Скачать торрент
Скачать торрент
Описание торрента

СообщениеДобавлено: 25 июл 2013 

#77

Информация о фильме
Название: Коралловый риф
Оригинальное название: Faszination Korallenriff
Год выхода: 2011
Жанр: Документальный
Режиссер: Бенжамин Краузе / Benjamin Krause

О фильме: Красивый и расслабляющий фильм в формате 3D приглашает Вас отправится в коралловое путешествие. Яркие краски обитателей кораллового Мира, флора и фауна которую могут увидеть только профессиональные ныряльщики. От шаровых рыб, морских ежей, до гигантский акул. Вы будете удивлены многочисленности глубоководных жителей нашей планеты. Самые современные 3D-технологии показывают вам подводный мир в вашей комнате отдыха.


Страна: Германия
Продолжительность: 00:44:40
Перевод: Профессиональный (одноголосый, закадровый)

Общее
Полное имя : Korallovuj.rif.3D.2011.x264.BDRip.720p.IRONCLUB.mkv
Формат : Matroska
Версия формата : Version 2
Размер файла : 3,99 Гбайт
Продолжительность : 44 м.
Общий поток : 12,8 Мбит/сек
Название фильма : Faszination Korallenriff 3D (2011) - Release for IronClub.TV
Дата кодирования : UTC 2012-02-25 07:18:39
Программа кодирования : mkvmerge v5.3.0 ('I could have danced') built on Feb 9 2012 10:38:07
Библиотека кодирования : libebml v1.2.3 + libmatroska v1.3.0

Видео
Идентификатор : 1
Формат : AVC
Формат/Информация : Advanced Video Codec
Профиль формата : High@L4.1
Параметр CABAC формата : Да
Параметр ReFrames формата : 9 кадров
Идентификатор кодека : V_MPEG4/ISO/AVC
Продолжительность : 44 м.
Битрейт : 9508 Кбит/сек
Ширина : 1280 пикселей
Высота : 720 пикселей
Соотношение сторон : 16:9
Частота кадров : 23,976 кадра/сек
Цветовое пространство : YUV
Субдискретизация насыщенности : 4:2:0
Битовая глубина : 8 бит
Тип развёртки : Прогрессивная
Бит/(Пиксели*Кадры) : 0.430
Размер потока : 2,97 Гбайт (74%)
Заголовок : Faszination Korallenriff 3D (2011) - Release for IronClub.TV
Библиотека кодирования : x264 core 120 r2164 da19765
Настройки программы : cabac=1 / ref=9 / deblock=1:-3:-3 / analyse=0x3:0x113 / me=umh / subme=11 / psy=1 / psy_rd=1.05:0.05 / mixed_ref=1 / me_range=32 / chroma_me=1 / trellis=2 / 8x8dct=1 / cqm=0 / deadzone=21,11 / fast_pskip=0 / chroma_qp_offset=-2 / threads=12 / sliced_threads=0 / nr=0 / decimate=1 / interlaced=0 / bluray_compat=0 / constrained_intra=0 / bframes=8 / b_pyramid=2 / b_adapt=2 / b_bias=0 / direct=3 / weightb=1 / open_gop=0 / weightp=2 / keyint=240 / keyint_min=22 / scenecut=40 / intra_refresh=0 / rc_lookahead=40 / rc=crf / mbtree=1 / crf=17.0 / qcomp=0.60 / qpmin=10 / qpmax=69 / qpstep=4 / vbv_maxrate=50000 / vbv_bufsize=62500 / crf_max=0.0 / nal_hrd=none / ip_ratio=1.40 / aq=1:1.00
Язык : English
Default : Да
Forced : Да

Аудио #1
Идентификатор : 2
Формат : DTS
Формат/Информация : Digital Theater Systems
Идентификатор кодека : A_DTS
Продолжительность : 44 м.
Вид битрейта : Постоянный
Битрейт : 1510 Кбит/сек
Каналы : 6 каналов
Расположение каналов : Front: L C R, Side: L R, LFE
Частота : 48,0 КГц
Битовая глубина : 16 бит
Метод сжатия : С потерями
Размер потока : 482 Мбайт (12%)
Заголовок : DTS 5.1 @ 1536 kbps - Закадровый одноголосый
Язык : Russian
Default : Да
Forced : Да

Аудио #2
Идентификатор : 3
Формат : DTS
Формат/Информация : Digital Theater Systems
Идентификатор кодека : A_DTS
Продолжительность : 44 м.
Вид битрейта : Постоянный
Битрейт : 1510 Кбит/сек
Каналы : 6 каналов
Расположение каналов : Front: L C R, Side: L R, LFE
Частота : 48,0 КГц
Битовая глубина : 24 бит
Метод сжатия : С потерями
Размер потока : 482 Мбайт (12%)
Заголовок : DTS 5.1 @ 1536 kbps
Язык : English
Default : Нет
Forced : Нет

Текст
Идентификатор : 4
Формат : UTF-8
Идентификатор кодека : S_TEXT/UTF8
Идентификатор кодека/Информация : UTF-8 Plain Text
Язык : Russian
Default : Нет
Forced : Нет

Меню
00:00:00.000 : :00:00:00.000
00:09:36.325 : :00:09:36.325
00:19:50.939 : :00:19:50.939
00:27:55.340 : :00:27:55.340
00:36:52.460 : :00:36:52.460
00:44:30.125 : :00:44:30.125


Файл
Качество: BDRip 720p [Рип с Blu-ray]
Формат: MKV
Видео кодек: H.264
Аудио кодек: DTS
Видео: MKV, 1280x720, ~9508 kbps avg, 23,976 fps
Аудио#1: Russian: DTS, 1510 kbps (6 ch)
Аудио#2: English: DTS, 1510 kbps (6 ch)

Семпл



Релиз группы:



   Похожие торренты   Торрент   Размер 
В этой теме нет новых непрочитанных сообщений. Коралловый риф / Faszination Korallenriff (2011) BDRip 1080p | 3D-Video

74 | 4

6.14 ГБ

В этой теме нет новых непрочитанных сообщений. Коралловый риф - Том 3 / Faszination Korallenriff 3D - Vol. 3: Jäger & Gejagte 3D (2011) BDRip 1080p | 3D-Video

5 | 5

6.89 ГБ

В этой теме нет новых непрочитанных сообщений. Коралловый риф / Faszination Korallenriff (2011) HDRip

1 | 1

690.65 МБ

В этой теме нет новых непрочитанных сообщений. Коралловый риф - Том 2 / Faszination Korallenriff - Vol.2: Fremde Welten Unter Wasser 3D (2011) BDRip 1080p | 3D-Video

21 | 5

6.56 ГБ

В этой теме нет новых непрочитанных сообщений. Коралловый риф / Faszination Korallenriff (2011) BDRemux 1080p от ExKinoRay | P1

17 | 8

9.4 ГБ

В этой теме нет новых непрочитанных сообщений. Коралловый риф: Охотники и жертвы / Faszination Korallenriff: Jager & Gejagte (2012) DVDRip-AVC от -=HD-NET=-

91 | 2

724.43 МБ

В этой теме нет новых непрочитанных сообщений. Коралловый риф: Охотники и жертвы / Faszination Korallenriff: Jager & Gejagte (2012) BDRemux 1080p от ExKinoRay | P1

11 | 8

10.15 ГБ




Вы не можете начинать темы
Вы не можете отвечать на сообщения
Вы не можете редактировать свои сообщения
Вы не можете удалять свои сообщения
Вы не можете добавлять вложения

Перейти:  
Для Мосгорсуда, Роскомнадзора и рекламодателей: mosgorsud-torrent[собачка]yandex.ru
 Вход
ppkBB3cker v.2 © 2008-2014 @ PPK
[ Time : 0.047s | 14 Queries | GZIP : Off ]

Торрент трекер RUTOR.IN, Не можете зайти на rutor.org? Какой новый адрес рутор? Какое зеркало рутор? Не работает rutor.org и зеркала? Тогда наш торрент специально для вас. Rutor.in неофициальное зеркало rutor. В случае если у Вас заблокирован rutor или вдруг Вы не можете на него зайти, то Вы без труда сможете скачать бесплатно и без рекламы последние новинки кино, игр, сериалов и прочего у нас, на Rutor.in. Не нужно использовать прокси, чтобы зайти на рутор, достаточно воспользоваться нашим ресурсом. Все новые фильмы, игры, сериалы, книги и музыка за 2013 и 2014 годы через торрент бесплатно. Скачивайте фильмы в хорошем качестве, игры для пк, xbox, playstation без регистрации. У нас вы найдете новые Зарубежные сериалы и Русские сериалы 2013, 2014, 2015 годов. Оставайтесь с нами, качайте любимые фильмы, игры, сериалы, книги и музыку.