img image001 image001 image001 image001 image001 image001 image001 image001 image001 image001 image001 image001 image001 image001 image001 image001

Planets Sun Sun Sun
Статистика раздачи
Автор: Снежана | Размер: 373.69 МБ | Добавлен: 24 июл 2013
Раздают: 24    Качают: 2
Скачать торрент
Скачать торрент
Описание торрента

СообщениеДобавлено: 24 июл 2013 

#77

Информация о фильме
Название: Морские Чудовища Древности
Оригинальное название: Ancient Sea Monsters
Год выхода: 2010
Жанр: документальный
Выпущено: National Geographic
Перевод: дублированный (профессиональный одноголосный)

О фильме:

Ныне сухой и пыльный штат Невада когда - то был океанским раем . 240 миллионов лет тому назад огромные доисторические рептилии плавали здесь в глубинах древнего моря .
Новая, поразительная находка, сделанная в этих пустынных холмах открыла ученым факты об одном из самых свирепых существ когда либо живших на планете: острозубом ихтиозавре !
Эта находка может изменить наше понимание того, как развивалась жизнь в доисторических морях Земли !
Общее
Формат : MPEG-4
Профиль формата : Base Media
Идентификатор кодека : isom
Размер файла : 374 Мбайт
Продолжительность : 44 м.
Режим общего битрейта : Переменный
Общий поток : 1169 Кбит/сек
Дата кодирования : UTC 2012-03-12 09:21:48
Дата пометки : UTC 2012-03-12 09:21:48
Программа кодирования : My MP4Box GUI 0.5.5.4

Видео
Идентификатор : 1
Формат : AVC
Формат/Информация : Advanced Video Codec
Профиль формата : High@L3.1
Параметр CABAC формата : Да
Параметр ReFrames формата : 8 кадров
Идентификатор кодека : avc1
Идентификатор кодека/Информация : Advanced Video Coding
Продолжительность : 42 м.
Битрейт : 1200 Кбит/сек
Максимальный битрейт : 4507 Кбит/сек
Ширина : 704 пикселя
Высота : 400 пикселей
Соотношение сторон : 16:9
Режим частоты кадров : Постоянный
Частота кадров : 25,000 кадров/сек
Цветовое пространство : YUV
Субдискретизация насыщенности : 4:2:0
Битовая глубина : 8 бит
Тип развёртки : Прогрессивная
Бит/(Пиксели*Кадры) : 0.170
Размер потока : 362 Мбайт (97%)
Заголовок : Imported with GPAC 0.4.6-DEV (internal rev. 5)
Библиотека кодирования : x264 core 119 r2106 07efeb4
Настройки программы : cabac=1 / ref=8 / deblock=1:0:0 / analyse=0x3:0x133 / me=umh / subme=9 / psy=1 / psy_rd=1.00:0.00 / mixed_ref=1 / me_range=16 / chroma_me=1 / trellis=2 / 8x8dct=1 /

cqm=0 / deadzone=21,11 / fast_pskip=1 / chroma_qp_offset=-2 / threads=6 / sliced_threads=0 / nr=0 / decimate=1 / interlaced=0 / bluray_compat=0 / constrained_intra=0 / bframes=3 / b_pyramid=2 / b_adapt=2 /

b_bias=0 / direct=3 / weightb=1 / open_gop=0 / weightp=2 / keyint=250 / keyint_min=25 / scenecut=40 / intra_refresh=0 / rc_lookahead=60 / rc=2pass / mbtree=1 / bitrate=1200 / ratetol=1.0 / qcomp=0.60 /

qpmin=0 / qpmax=69 / qpstep=4 / cplxblur=20.0 / qblur=0.5 / ip_ratio=1.40 / aq=1:1.00
Дата кодирования : UTC 2012-03-12 09:21:48
Дата пометки : UTC 2012-03-12 09:21:52

Аудио
Идентификатор : 2
Формат : AAC
Формат/Информация : Advanced Audio Codec
Профиль формата : HE-AAC / LC
Идентификатор кодека : 40
Продолжительность : 44 м.
Вид битрейта : Переменный
Битрейт : 32,0 Кбит/сек
Максимальный битрейт : 35,0 Кбит/сек
Каналы : 1 канал
Расположение каналов : Front: C
Частота : 48,0 КГц / 24,0 КГц
Метод сжатия : С потерями
Размер потока : 10,2 Мбайт (3%)
Дата кодирования : UTC 2012-03-12 09:21:52
Дата пометки : UTC 2012-03-12 09:21:52





   Похожие торренты   Торрент   Размер 
В этой теме нет новых непрочитанных сообщений. NG: С точки зрения науки. Тайна возникновения жизни / Naked Science. Finding the Origin of Life (2010) HDTV 1080i

53 | 8

2.53 ГБ

В этой теме нет новых непрочитанных сообщений. С точки зрения науки. Звездные часы: древний антикитерский механизм / NG: Naked Science: Star clock (2010) HDTV 1080i | P1

12 | 0

2.48 ГБ

В этой теме нет новых непрочитанных сообщений. National Geographic. С точки зрения науки. Субмарины 21 века / 21st Century Submarine (2011) HDTVRip-AVC от TORRENT - BAGIRA

124 | 9

657.85 МБ

В этой теме нет новых непрочитанных сообщений. National Geographic. Наука о невероятном / Science Impossible [S02] (2010) SATRip | D

38 | 21

4.04 ГБ

В этой теме нет новых непрочитанных сообщений. National Geographic: Мурены. Чужая империя / National Geographic: Moray. Alien empire (2010) HDTV 1080i | P1

2 | 0

2.82 ГБ

В этой теме нет новых непрочитанных сообщений. National Geographic. Медузы-монстры / National Geographic. Monster Jellyfish (2010) HDTVRip 1080p MediaClub

9 | 2

3.74 ГБ

В этой теме нет новых непрочитанных сообщений. National Geographic: Город муравьёв / National Geographic: City of Ants (2010) HDTVRip

33 | 6

642.86 МБ




Вы не можете начинать темы
Вы не можете отвечать на сообщения
Вы не можете редактировать свои сообщения
Вы не можете удалять свои сообщения
Вы не можете добавлять вложения

Перейти:  
 Вход
ppkBB3cker v.2 © 2008-2014 @ PPK
[ Time : 0.049s | 18 Queries | GZIP : Off ]

cron