img image001 image001 image001 image001 image001 image001 image001 image001 image001 image001 image001 image001 image001 image001 image001

Planets Sun Sun Sun
Статистика раздачи
Автор: Снежана | Размер: 423.26 МБ | Добавлен: 25 июл 2013
Раздают: 0    Качают: 4
Скачать торрент
Скачать торрент
Описание торрента

СообщениеДобавлено: 25 июл 2013 

#77

Информация о фильме
Название: Испытание Веры
Оригинальное название: Trials of Faith
Год выхода: 2009
Жанр: документальный
Выпущено: National Geographic
Перевод: профессиональный одноголосный

О фильме:
На что вы готовы, чтобы испытать свою веру ?
Кто - то наносит себе раны острым, как бритва, мечем .
А кто - то протыкает своё лицо всеми мыслимыми и немыслимыми предметами .
Прихожане берут в руки и пьют их яд, осознавая, что могут умереть в любую секунду.
Что заставляет человека повторять страдания Христа, распяв себя ?
Где проходит грань меду испытанием и ЗАПРЕТОМ ?
Видео: AVC, 688x424, 25 fps, 1200 kbps, 0.161 bit/pixel
Аудио: AAC (LC), 32 kHz, 1 ch,, 56 kbps

Общее
Формат : MPEG-4
Профиль формата : Base Media
Идентификатор кодека : isom
Размер файла : 423 Мбайт
Продолжительность : 47 м.
Режим общего битрейта : Переменный
Общий поток : 1258 Кбит/сек
Дата кодирования : UTC 2012-03-23 09:10:04
Дата пометки : UTC 2012-03-23 09:10:04
Программа кодирования : My MP4Box GUI 0.5.5.4

Видео
Идентификатор : 1
Формат : AVC
Формат/Информация : Advanced Video Codec
Профиль формата : High@L3.1
Параметр CABAC формата : Да
Параметр ReFrames формата : 8 кадров
Идентификатор кодека : avc1
Идентификатор кодека/Информация : Advanced Video Coding
Продолжительность : 47 м.
Битрейт : 1199 Кбит/сек
Максимальный битрейт : 3861 Кбит/сек
Ширина : 688 пикселей
Высота : 424 пикселя
Соотношение сторон : 1,623
Режим частоты кадров : Постоянный
Частота кадров : 25,000 кадров/сек
Цветовое пространство : YUV
Субдискретизация насыщенности : 4:2:0
Битовая глубина : 8 бит
Тип развёртки : Прогрессивная
Бит/(Пиксели*Кадры) : 0.164
Размер потока : 403 Мбайт (95%)
Заголовок : Video
Библиотека кодирования : x264 core 119 r2106 07efeb4
Настройки программы : cabac=1 / ref=8 / deblock=1:0:0 / analyse=0x3:0x133 / me=umh / subme=9 / psy=1 / psy_rd=1.00:0.00 / mixed_ref=1 / me_range=16 / chroma_me=1 / trellis=2 / 8x8dct=1 / cqm=0 / deadzone=21,11 / fast_pskip=1 / chroma_qp_offset=-2 / threads=6 / sliced_threads=0 / nr=0 / decimate=1 / interlaced=0 / bluray_compat=0 / constrained_intra=0 / bframes=3 / b_pyramid=2 / b_adapt=2 / b_bias=0 / direct=3 / weightb=1 / open_gop=0 / weightp=2 / keyint=250 / keyint_min=25 / scenecut=40 / intra_refresh=0 / rc_lookahead=60 / rc=2pass / mbtree=1 / bitrate=1199 / ratetol=1.0 / qcomp=0.60 / qpmin=0 / qpmax=69 / qpstep=4 / cplxblur=20.0 / qblur=0.5 / ip_ratio=1.40 / aq=1:1.00
Дата кодирования : UTC 2012-03-23 22:24:55
Дата пометки : UTC 2012-03-23 09:10:15

Аудио
Идентификатор : 2
Формат : AAC
Формат/Информация : Advanced Audio Codec
Профиль формата : LC
Идентификатор кодека : 40
Продолжительность : 47 м.
Вид битрейта : Переменный
Битрейт : 56,0 Кбит/сек
Максимальный битрейт : 61,0 Кбит/сек
Каналы : 1 канал
Расположение каналов : Front: C
Частота : 32,0 КГц
Метод сжатия : С потерями
Размер потока : 18,8 Мбайт (4%)
Язык : English
Дата кодирования : UTC 2012-03-23 09:10:15
Дата пометки : UTC 2012-03-23 09:10:15





   Похожие торренты   Торрент   Размер 
В этой теме нет новых непрочитанных сообщений. National Geographic: Запреты: Странная Любовь / Taboo: Strange Love (2010) TVRip-AVC

2 | 2

404.47 МБ

В этой теме нет новых непрочитанных сообщений. National Geographic: Запреты: Ролевые Игры / Taboo: Fantasy Lives (2011) TVRip-AVC

0 | 3

403.46 МБ

В этой теме нет новых непрочитанных сообщений. National Geographic: Запреты: Знаки Принадлежности / Taboo: Signs of belonging (2012) TVRip-AVC

2 | 1

427.41 МБ

В этой теме нет новых непрочитанных сообщений. National Geographic: Запреты. Смена пола / National Geographic. Taboo. Sex Swap (2007) HDTV 720p

2 | 4

1.18 ГБ

В этой теме нет новых непрочитанных сообщений. Запреты. National Geographic / Taboo. National Geographic [s01-09 55 фильмов] (2002-2012) SATRip от MediaClub | КПК

5 | 201

11.09 ГБ

В этой теме нет новых непрочитанных сообщений. National Geographic: Запреты / National Geographic: Taboo [01-42] (2002-2012) HDTVRip 720p

0 | 7

48.58 ГБ

В этой теме нет новых непрочитанных сообщений. National Geographic: Запреты / National Geographic: Taboo [01-50] (2002-2011) SATRip

2 | 11

32.19 ГБ




Вы не можете начинать темы
Вы не можете отвечать на сообщения
Вы не можете редактировать свои сообщения
Вы не можете удалять свои сообщения
Вы не можете добавлять вложения

Перейти:  
Для Мосгорсуда, Роскомнадзора и рекламодателей: mosgorsud-torrent[собачка]yandex.ru
 Вход
ppkBB3cker v.2 © 2008-2014 @ PPK
[ Time : 0.026s | 14 Queries | GZIP : Off ]

Торрент трекер RUTOR.IN, Не можете зайти на rutor.org? Какой новый адрес рутор? Какое зеркало рутор? Не работает rutor.org и зеркала? Тогда наш торрент специально для вас. Rutor.in неофициальное зеркало rutor. В случае если у Вас заблокирован rutor или вдруг Вы не можете на него зайти, то Вы без труда сможете скачать бесплатно и без рекламы последние новинки кино, игр, сериалов и прочего у нас, на Rutor.in. Не нужно использовать прокси, чтобы зайти на рутор, достаточно воспользоваться нашим ресурсом. Все новые фильмы, игры, сериалы, книги и музыка за 2013 и 2014 годы через торрент бесплатно. Скачивайте фильмы в хорошем качестве, игры для пк, xbox, playstation без регистрации. У нас вы найдете новые Зарубежные сериалы и Русские сериалы 2013, 2014, 2015 годов. Оставайтесь с нами, качайте любимые фильмы, игры, сериалы, книги и музыку.