img image001 image001 image001 image001 image001 image001 image001 image001 image001 image001 image001 image001 image001 image001 image001

Planets Sun Sun Sun
Статистика раздачи
Автор: Снежана | Размер: 421.21 МБ | Добавлен: 25 июл 2013
Раздают: 15    Качают: 1
Скачать торрент
Скачать торрент
Описание торрента

СообщениеДобавлено: 25 июл 2013 

#77

Информация о фильме
Название: Загадки Древних Людей Аляски
Оригинальное название: Surviving Ancient Alaska
Год выхода: 2010
Жанр: документальный
Выпущено: National Geographic
Продолжительность: 46 м.
Перевод: профессиональный одноголосный

О фильме:
Экстремальные условия Аляски могут погубить тех, кто осмелился прийти на эту обширную территорию без подготовки ! Но тысячелетия назад люди переносили ещё более суровые условия, когда пришли на эту неизведанную землю .
Сейчас две группы археологов отважатся отправиться на Аляску, для того чтобы пролить свет на то, как древние люди захватили Новый Свет !
Видео: AVC, 688x432, 25 fps, 1200 kbps, 0.170 bit/pixel
Аудио: AAC (LC), 32 kHz, 1 ch, 56 kbps

ООбщее
Формат : MPEG-4
Профиль формата : Base Media
Идентификатор кодека : isom
Размер файла : 421 Мбайт
Продолжительность : 46 м.
Режим общего битрейта : Переменный
Общий поток : 1259 Кбит/сек
Дата кодирования : UTC 2012-03-23 15:31:06
Дата пометки : UTC 2012-03-23 15:31:06
Программа кодирования : My MP4Box GUI 0.5.5.4

Видео
Идентификатор : 1
Формат : AVC
Формат/Информация : Advanced Video Codec
Профиль формата : High@L3.1
Параметр CABAC формата : Да
Параметр ReFrames формата : 8 кадров
Идентификатор кодека : avc1
Идентификатор кодека/Информация : Advanced Video Coding
Продолжительность : 46 м.
Битрейт : 1200 Кбит/сек
Максимальный битрейт : 4000 Кбит/сек
Ширина : 688 пикселей
Высота : 432 пикселя
Соотношение сторон : 1,593
Режим частоты кадров : Постоянный
Частота кадров : 25,000 кадров/сек
Цветовое пространство : YUV
Субдискретизация насыщенности : 4:2:0
Битовая глубина : 8 бит
Тип развёртки : Прогрессивная
Бит/(Пиксели*Кадры) : 0.161
Размер потока : 401 Мбайт (95%)
Заголовок : Video
Библиотека кодирования : x264 core 119 r2106 07efeb4
Настройки программы : cabac=1 / ref=8 / deblock=1:0:0 / analyse=0x3:0x133 / me=umh / subme=9 / psy=1 / psy_rd=1.00:0.00 / mixed_ref=1 / me_range=16 / chroma_me=1 / trellis=2 / 8x8dct=1 / cqm=0 / deadzone=21,11 / fast_pskip=1 / chroma_qp_offset=-2 / threads=6 / sliced_threads=0 / nr=0 / decimate=1 / interlaced=0 / bluray_compat=0 / constrained_intra=0 / bframes=3 / b_pyramid=2 / b_adapt=2 / b_bias=0 / direct=3 / weightb=1 / open_gop=0 / weightp=2 / keyint=250 / keyint_min=25 / scenecut=40 / intra_refresh=0 / rc_lookahead=60 / rc=2pass / mbtree=1 / bitrate=1200 / ratetol=1.0 / qcomp=0.60 / qpmin=0 / qpmax=69 / qpstep=4 / cplxblur=20.0 / qblur=0.5 / ip_ratio=1.40 / aq=1:1.00
Дата кодирования : UTC 2012-03-24 12:58:57
Дата пометки : UTC 2012-03-23 15:31:18

Аудио
Идентификатор : 2
Формат : AAC
Формат/Информация : Advanced Audio Codec
Профиль формата : LC
Идентификатор кодека : 40
Продолжительность : 46 м.
Вид битрейта : Переменный
Битрейт : 56,0 Кбит/сек
Максимальный битрейт : 61,6 Кбит/сек
Каналы : 2 канала
Расположение каналов : Front: L R
Частота : 32,0 КГц
Метод сжатия : С потерями
Размер потока : 18,7 Мбайт (4%)
Язык : English
Дата кодирования : UTC 2012-03-23 15:31:18
Дата пометки : UTC 2012-03-23 15:31:18





   Похожие торренты   Торрент   Размер 
В этой теме нет новых непрочитанных сообщений. National Geographic: С точки зрения науки: Морские Чудовища Древности / Naked Science: Ancient Sea Monsters (2010) TVRip-AVC

24 | 2

373.69 МБ

В этой теме нет новых непрочитанных сообщений. National Geographic: С точки зрения науки: Земля без Луны / Naked Science: Earth Without the Moon (2010) TVRip-AVC

19 | 7

422.35 МБ

В этой теме нет новых непрочитанных сообщений. National Geographic: С точки зрения науки: Огненные шары пришельцев / Naked Science: Alien Fireballs (2010) TVRip-AVC

17 | 2

403.46 МБ

В этой теме нет новых непрочитанных сообщений. National Geographic: С точки зрения науки: Звездные Часы / Naked Science: Star Clock (2011) TVRip-AVC

12 | 2

408.18 МБ

В этой теме нет новых непрочитанных сообщений. National Geographic: С точки зрения науки: Секреты Пиротехники / Naked Science: Secret World of Fireworks (2009) TVRip-AVC

13 | 3

426.14 МБ

В этой теме нет новых непрочитанных сообщений. С точки зрения науки - дело о планете Земля / Naked Science (National Geographic) [65 серий] (2004-2009) TVRip, SATRip

2 | 16

31.96 ГБ

В этой теме нет новых непрочитанных сообщений. С точки зрения науки - Дело о планете Земля / National Geographic: Naked Science [65 серий] (2004-2009) TVRip, SATRip

34 | 21

31.96 ГБ




Вы не можете начинать темы
Вы не можете отвечать на сообщения
Вы не можете редактировать свои сообщения
Вы не можете удалять свои сообщения
Вы не можете добавлять вложения

Перейти:  
Для Мосгорсуда, Роскомнадзора и рекламодателей: mosgorsud-torrent[собачка]yandex.ru
 Вход
ppkBB3cker v.2 © 2008-2014 @ PPK
[ Time : 0.027s | 14 Queries | GZIP : Off ]

Торрент трекер RUTOR.IN, Не можете зайти на rutor.org? Какой новый адрес рутор? Какое зеркало рутор? Не работает rutor.org и зеркала? Тогда наш торрент специально для вас. Rutor.in неофициальное зеркало rutor. В случае если у Вас заблокирован rutor или вдруг Вы не можете на него зайти, то Вы без труда сможете скачать бесплатно и без рекламы последние новинки кино, игр, сериалов и прочего у нас, на Rutor.in. Не нужно использовать прокси, чтобы зайти на рутор, достаточно воспользоваться нашим ресурсом. Все новые фильмы, игры, сериалы, книги и музыка за 2013 и 2014 годы через торрент бесплатно. Скачивайте фильмы в хорошем качестве, игры для пк, xbox, playstation без регистрации. У нас вы найдете новые Зарубежные сериалы и Русские сериалы 2013, 2014, 2015 годов. Оставайтесь с нами, качайте любимые фильмы, игры, сериалы, книги и музыку.