img image001 image001 image001 image001 image001 image001 image001 image001 image001 image001 image001 image001 image001 image001 image001

Planets Sun Sun Sun
Статистика раздачи
Автор: Снежана | Размер: 1.2 ГБ | Добавлен: 25 июл 2013
Раздают: 0    Качают: 1
Скачать торрент
Скачать торрент
Описание торрента

СообщениеДобавлено: 25 июл 2013 

#77

Название: Вулкан осьминогов (Вулкан и осьминоги)
Оригинальное название: Octopus Volcano
Год выхода: 2007
Страна: Чехия, Великобритания
Жанр: документальный
Режиссер: Сигурд Теше, Питер Венн / Sigurd Tesche, Peter Venn

О фильме:
Стромболи - вулканический остров в Средиземном море. Извержения происходят по несколько раз в час на протяжении почти двух тысяч лет. Поверхность острова раскалена, с крутых склонов в море летят камни и песок, и жизнь морских обитателей подвергается постоянной опасности. Это не пугает только осьминогов, которые приспособились к таким суровым условиям. Несмотря на то, что вулкан извергает в море лаву, осьминог продолжает процветать в этих негостеприимных прибрежных водах. Узнайте удивительную историю этого легко адаптирующегося существа.



Информация о файле:
Качество: HDTVRip 720p
Продолжительность: 00:47:10
Язык (перевод):
1) русский двухголосый закадровый (ГТРК "Культура")
2) русский одноголосый закадровый (National Geographic Wild)
3) оригинальная английская дорожка
Субтитры: нет
Формат: MKV

Видео: 1280x720 (16:9), 25,000 fps, x264 ~2871 kbps avg, 0.125 bit/pixel
Аудио 1: 48 kHz, AC3 Dolby Digital, 2 ch, 192 kbps
Аудио 2: 48 kHz, AC3 Dolby Digital, 2 ch, 192 kbps
Аудио 3: 48 kHz, AC3 Dolby Digital, 3/2 (L,C,R,l,r) + LFE ch, 384 kbps

Complete name : E:НовоеВулкан осьминоговVulkan.osminogov.2007.x264.HDTVRip.720p.mkv

Format : Matroska

Format version : Version 2

File size : 1.20 GiB

Duration : 47mn 10s

Overall bit rate : 3 642 Kbps

Encoded date : UTC 2012-04-01 09:03:48

Writing application : mkvmerge v4.5.0 ('Speed of Light') сборка от Feb 1 2011 02:10:32

Writing library : libebml v1.2.0 + libmatroska v1.1.0
Video

ID : 1

Format : AVC

Format/Info : Advanced Video Codec

Format profile : High@L5.1

Format settings, CABAC : Yes

Format settings, ReFrames : 8 frames

Codec ID : V_MPEG4/ISO/AVC

Duration : 47mn 10s

Bit rate : 2 871 Kbps

Width : 1 280 pixels

Height : 720 pixels

Display aspect ratio : 16:9

Frame rate : 25.000 fps

Color space : YUV

Chroma subsampling : 4:2:0

Bit depth : 8 bits

Scan type : Progressive

Bits/(Pixel*Frame) : 0.125

Stream size : 945 MiB (77%)

Writing library : x264 core 56 svn-667C

Encoding settings : cabac=1 / ref=5 / deblock=1:-4:-4 / analyse=0x3:0x113 / me=umh / subme=6 / brdo=1 / mixed_ref=1 / me_range=16 / chroma_me=1 / trellis=1 / 8x8dct=1 / cqm=2 / deadzone=4,6 / chroma_qp_offset=0 / threads=2 / nr=0 / decimate=1 / mbaff=0 / bframes=3 / b_pyramid=1 / b_adapt=1 / b_bias=0 / direct=3 / wpredb=1 / bime=1 / keyint=250 / keyint_min=25 / scenecut=40(pre) / rc=2pass / bitrate=2871 / ratetol=1.0 / rceq='blurCplx^(1-qComp)' / qcomp=0.60 / qpmin=10 / qpmax=51 / qpstep=4 / cplxblur=20.0 / qblur=0.5 / ip_ratio=1.40 / pb_ratio=1.30 / aq=1:0.3:15.0

Language : English

Default : Yes

Forced : No
Audio #1
ID : 2

Format : AC-3

Format/Info : Audio Coding 3

Mode extension : CM (complete main)

Codec ID : A_AC3

Duration : 47mn 10s

Bit rate mode : Constant

Bit rate : 192 Kbps

Channel(s) : 2 channels

Channel positions : Front: L R

Sampling rate : 48.0 KHz

Bit depth : 16 bits

Compression mode : Lossy

Stream size : 64.8 MiB (5%)

Title : GTRK Kultura

Language : Russian

Default : Yes

Forced : No
Audio #2

ID : 3

Format : AC-3

Format/Info : Audio Coding 3

Mode extension : CM (complete main)

Codec ID : A_AC3

Duration : 47mn 10s

Bit rate mode : Constant

Bit rate : 192 Kbps

Channel(s) : 2 channels

Channel positions : Front: L R

Sampling rate : 48.0 KHz

Bit depth : 16 bits

Compression mode : Lossy

Stream size : 64.8 MiB (5%)

Title : National Geographic Wild

Language : Russian

Default : No

Forced : No
Audio #3

ID : 4

Format : AC-3

Format/Info : Audio Coding 3

Mode extension : CM (complete main)

Codec ID : A_AC3

Duration : 47mn 10s

Bit rate mode : Constant

Bit rate : 384 Kbps

Channel(s) : 6 channels

Channel positions : Front: L C R, Side: L R, LFE

Sampling rate : 48.0 KHz

Bit depth : 16 bits

Compression mode : Lossy

Stream size : 130 MiB (11%)

Title : Original

Language : English

Default : No

Forced : No


Скриншоты





   Похожие торренты   Торрент   Размер 
В этой теме нет новых непрочитанных сообщений. Вулкан / Volcano (1997) HDTVRip 720p by Romeo

30 | 9

2.21 ГБ

В этой теме нет новых непрочитанных сообщений. Вулкан / Volcano (1997) DVDRip-AVC

5 | 4

1.45 ГБ

В этой теме нет новых непрочитанных сообщений. Вулкан / Volcano (1997) DVDRip

6 | 4

1.37 ГБ

В этой теме нет новых непрочитанных сообщений. Вулкан / Volcano (1997) BDRip-AVC от New-Team | D

42 | 8

2.19 ГБ

В этой теме нет новых непрочитанных сообщений. Вулкан / Eldfjall / Volcano (2011) SATRip | Sub

78 | 4

1.46 ГБ

В этой теме нет новых непрочитанных сообщений. Вулкан / Volcano (1997) BDRip от Rulya74 | D, A

36 | 5

1.46 ГБ

В этой теме нет новых непрочитанных сообщений. Вулкан / Volcano (1997) BDRip от New-Team | D

51 | 11

745.05 МБ




Вы не можете начинать темы
Вы не можете отвечать на сообщения
Вы не можете редактировать свои сообщения
Вы не можете удалять свои сообщения
Вы не можете добавлять вложения

Перейти:  
Для Мосгорсуда, Роскомнадзора и рекламодателей: mosgorsud-torrent[собачка]yandex.ru
 Вход
ppkBB3cker v.2 © 2008-2014 @ PPK
[ Time : 0.019s | 14 Queries | GZIP : On ]

Торрент трекер RUTOR.IN, Не можете зайти на rutor.org? Какой новый адрес рутор? Какое зеркало рутор? Не работает rutor.org и зеркала? Тогда наш торрент специально для вас. Rutor.in неофициальное зеркало rutor. В случае если у Вас заблокирован rutor или вдруг Вы не можете на него зайти, то Вы без труда сможете скачать бесплатно и без рекламы последние новинки кино, игр, сериалов и прочего у нас, на Rutor.in. Не нужно использовать прокси, чтобы зайти на рутор, достаточно воспользоваться нашим ресурсом. Все новые фильмы, игры, сериалы, книги и музыка за 2013 и 2014 годы через торрент бесплатно. Скачивайте фильмы в хорошем качестве, игры для пк, xbox, playstation без регистрации. У нас вы найдете новые Зарубежные сериалы и Русские сериалы 2013, 2014, 2015 годов. Оставайтесь с нами, качайте любимые фильмы, игры, сериалы, книги и музыку.