img image001 image001 image001 image001 image001 image001 image001 image001 image001 image001 image001 image001 image001 image001 image001

Planets Sun Sun Sun
Статистика раздачи
Автор: Снежана | Размер: 3.92 ГБ | Добавлен: 25 июл 2013
Раздают: 2    Качают: 4
Скачать торрент
Скачать торрент
Описание торрента

СообщениеДобавлено: 25 июл 2013 

#77

Название: Мир природы: Львы пустыни
Оригинальное название: Natural World: Desert Lions
Год выхода: 2007
Страна: Великобритания
Жанр: Документальный

О фильме: Намиб - древнейшая пустыня на земле. Безжалостная и непрощающая, постичь её нелегко. Изменчивые воды Берега скелетов закрывают доступ к пустыне по всей её длине. Неудивительно, что Намиб так хорошо хранит свои секреты. Когда-то здесь жили львы. Однако они были подобны призракам, их редко кто видел. Потом, более двадцати лет назад, они куда-то исчезли. И сегодня один человек решил бросить вызов пустыне. Им движет вера, что самые удивительные львы Африки постепенно возвращаются...

Информация о файле:
Качество: BDRip 1080p
Продолжительность: 00:49:12
Язык (перевод): 1) русский одноголосый закадровый; 2) оригинальная английская дорожка
Субтитры: русские, английские
Формат: MKV



Видео: MPEG-4 AVC, 1920x1080, 29.970 fps, ~11Mbps
Аудио 1: Dolby Digital, 48 kHz, 448 kbps, 16-bit
Аудио 2: Dolby Digital, 48 kHz, 448 kbps, 16-bit

General
Unique ID : 217773015570371034496487802392496203835 (0xA3D58EA320FB8BBBADAC44858B52683B)
Complete name : J:Natural.World.Desert.Lions.x264.BDRip(1080p).mkv
Format : Matroska
Format version : Version 2
File size : 3.92 GiB
Duration : 49mn 23s
Overall bit rate mode : Variable
Overall bit rate : 11.4 Mbps
Encoded date : UTC 2012-03-27 17:24:21
Writing application : mkvmerge v5.3.0 ('I could have danced') built on Feb 9 2012 10:38:07
Writing library : libebml v1.2.3 + libmatroska v1.3.0

Video
ID : 1
Format : AVC
Format/Info : Advanced Video Codec
Format profile : High@L4.1
Format settings, CABAC : Yes
Format settings, ReFrames : 3 frames
Codec ID : V_MPEG4/ISO/AVC
Duration : 49mn 23s
Bit rate mode : Variable
Bit rate : 10.5 Mbps
Maximum bit rate : 12.0 Mbps
Width : 1 920 pixels
Height : 1 080 pixels
Display aspect ratio : 16:9
Frame rate : 29.970 fps
Color space : YUV
Chroma subsampling : 4:2:0
Bit depth : 8 bits
Scan type : Progressive
Bits/(Pixel*Frame) : 0.169
Stream size : 3.53 GiB (90%)
Writing library : x264 core 120 r2164 da19765
Encoding settings : cabac=1 / ref=4 / deblock=1:-1:-1 / analyse=0x3:0x133 / me=umh / subme=9 / psy=1 / psy_rd=1.00:0.00 / mixed_ref=1 / me_range=16 / chroma_me=1 / trellis=2 / 8x8dct=1 / cqm=0 / deadzone=21,11 / fast_pskip=1 / chroma_qp_offset=-2 / threads=6 / sliced_threads=0 / slices=4 / nr=0 / decimate=1 / interlaced=fake / bluray_compat=1 / constrained_intra=0 / bframes=3 / b_pyramid=1 / b_adapt=2 / b_bias=0 / direct=3 / weightb=1 / open_gop=1 / weightp=1 / keyint=30 / keyint_min=1 / scenecut=40 / intra_refresh=0 / rc_lookahead=30 / rc=2pass / mbtree=1 / bitrate=10500 / ratetol=1.0 / qcomp=0.60 / qpmin=0 / qpmax=51 / qpstep=4 / cplxblur=20.0 / qblur=0.5 / vbv_maxrate=12000 / vbv_bufsize=10500 / nal_hrd=vbr / ip_ratio=1.40 / aq=1:1.00
Language : English
Default : Yes
Forced : No
Color primaries : BT.709-5, BT.1361, IEC 61966-2-4, SMPTE RP177
Transfer characteristics : BT.709-5, BT.1361
Matrix coefficients : BT.709-5, BT.1361, IEC 61966-2-4 709, SMPTE RP177

Audio #1
ID : 2
Format : AC-3
Format/Info : Audio Coding 3
Mode extension : CM (complete main)
Codec ID : A_AC3
Duration : 49mn 23s
Bit rate mode : Constant
Bit rate : 448 Kbps
Channel(s) : 6 channels
Channel positions : Front: L C R, Side: L R, LFE
Sampling rate : 48.0 KHz
Bit depth : 16 bits
Compression mode : Lossy
Stream size : 158 MiB (4%)
Language : Russian
Default : Yes
Forced : Yes

Audio #2
ID : 3
Format : AC-3
Format/Info : Audio Coding 3
Mode extension : CM (complete main)
Codec ID : A_AC3
Duration : 49mn 23s
Bit rate mode : Constant
Bit rate : 448 Kbps
Channel(s) : 6 channels
Channel positions : Front: L C R, Side: L R, LFE
Sampling rate : 48.0 KHz
Bit depth : 16 bits
Compression mode : Lossy
Stream size : 158 MiB (4%)
Language : English
Default : No
Forced : No

Text #1
ID : 4
Format : PGS
Muxing mode : zlib
Codec ID : S_HDMV/PGS
Codec ID/Info : The same subtitle format used on BDs/HD-DVDs
Language : Russian
Default : Yes
Forced : No

Text #2
ID : 5
Format : PGS
Muxing mode : zlib
Codec ID : S_HDMV/PGS
Codec ID/Info : The same subtitle format used on BDs/HD-DVDs
Language : English
Default : No
Forced : No


Скриншоты





   Похожие торренты   Торрент   Размер 
В этой теме нет новых непрочитанных сообщений. BBC: Мир природы. Львы пустыни / BBC: Natural World: Desert Lions [26x09] (2007) BDRip 720р от ExKinoRay

12 | 2

1.53 ГБ

В этой теме нет новых непрочитанных сообщений. Тайны дикой природы Индии: Львы пустыни / Secrets of Wild India: Desert Lions (2012) HDTVRip-AVC | D

5 | 3

699.7 МБ

В этой теме нет новых непрочитанных сообщений. Тайны дикой природы Индии: Львы пустыни / Secrets of Wild India: Desert Lions (2012) HDTVRip | D

16 | 8

699.7 МБ

В этой теме нет новых непрочитанных сообщений. Тайны дикой природы Индии: Львы пустыни / Secrets of Wild India: Desert Lions (2011) HDTVRip 720р от RG MixTorrent

6 | 7

936.08 МБ

В этой теме нет новых непрочитанных сообщений. Львы для ягнят / Lions for Lambs (2007) BDRip 1080p от HDreactor

6 | 4

7.96 ГБ

В этой теме нет новых непрочитанных сообщений. BBC: Мир природы - Птицы рая / BBC: Natural World - Birds of the Gods (2010) BDRip 1080p

13 | 6

4.38 ГБ

В этой теме нет новых непрочитанных сообщений. BBC: Мир природы. Ошибки природы / Natural World. Natures Misfits (2014) HDTVRip-AVC от Kaztorrents | P1

191 | 30

707.41 МБ




Вы не можете начинать темы
Вы не можете отвечать на сообщения
Вы не можете редактировать свои сообщения
Вы не можете удалять свои сообщения
Вы не можете добавлять вложения

Перейти:  
Для Мосгорсуда, Роскомнадзора и рекламодателей: mosgorsud-torrent[собачка]yandex.ru
 Вход
ppkBB3cker v.2 © 2008-2014 @ PPK
[ Time : 0.061s | 14 Queries | GZIP : Off ]

Торрент трекер RUTOR.IN, Не можете зайти на rutor.org? Какой новый адрес рутор? Какое зеркало рутор? Не работает rutor.org и зеркала? Тогда наш торрент специально для вас. Rutor.in неофициальное зеркало rutor. В случае если у Вас заблокирован rutor или вдруг Вы не можете на него зайти, то Вы без труда сможете скачать бесплатно и без рекламы последние новинки кино, игр, сериалов и прочего у нас, на Rutor.in. Не нужно использовать прокси, чтобы зайти на рутор, достаточно воспользоваться нашим ресурсом. Все новые фильмы, игры, сериалы, книги и музыка за 2013 и 2014 годы через торрент бесплатно. Скачивайте фильмы в хорошем качестве, игры для пк, xbox, playstation без регистрации. У нас вы найдете новые Зарубежные сериалы и Русские сериалы 2013, 2014, 2015 годов. Оставайтесь с нами, качайте любимые фильмы, игры, сериалы, книги и музыку.