img image001 image001 image001 image001 image001 image001 image001 image001 image001 image001 image001 image001 image001 image001 image001

Planets Sun Sun Sun
Статистика раздачи
Автор: Снежана | Размер: 4.32 ГБ | Добавлен: 24 июл 2013
Раздают: 0    Качают: 1
Скачать торрент
Скачать торрент
Описание торрента

СообщениеДобавлено: 24 июл 2013 

#77

Название: Приключения в Северном море
Оригинальное название: North Sea Adventure
Год выхода: 2010
Страна: Великобритания
Жанр: документальный

О фильме: Северное море поражает своей мощью и красотой. Кроме того, это море крайне непредсказуемо: погода может меняться от практически полного штиля до шторма и обратно в течение одного дня. Как правило, Северное море обрушивает свои самые сильные шторма на побережье Западной Европы весной и осенью. Здесь нашли свой покой десятки и сотни кораблей. В этой программе вас ждут удивительные погружения и красивейшие кадры, на которых запечатлены острова Северного моря.

Информация о файле:
Качество: HDTV 1080i
Продолжительность: 00:50:05
Язык (перевод): Профессиональный (одноголосый)
Язык комментариев: Русский
Формат: TS

Видео: H.264; 1920x1080 (16:9); 25.000 fps; 11100 kbps
Аудио 1: MP2; 48000 Hz; 192 kbps; 2 channels
Аудио 2: AC-3; 48000 Hz; 448 kbps; 2 channels

Общее
Идентификатор : 8000 (0x1F40)
Полное имя : F:ЗакачкиПриключения в Северном море-Nikolay_-_-.ts
Формат : MPEG-TS
Размер файла : 4,32 Гбайт
Продолжительность : 50 м.
Общий поток : 12,4 Мбит/сек

Видео
Идентификатор : 1300 (0x514)
Идентификатор меню : 70 (0x46)
Формат : AVC
Формат/Информация : Advanced Video Codec
Профиль формата : Main@L4.0
Параметр CABAC формата : Да
Параметр ReFrames формата : 4 кадра
Идентификатор кодека : 27
Продолжительность : 50 м.
Битрейт : 11,1 Мбит/сек
Ширина : 1920 пикселей
Высота : 1080 пикселей
Соотношение сторон : 16:9
Частота кадров : 25,000 кадров/сек
Стандарт вещания : Component
Цветовое пространство : YUV
Субдискретизация насыщенности : 4:2:0
Битовая глубина : 8 бит
Тип развёртки : Чересстрочная
Порядок развёртки : Верхнее поле первое
Бит/(Пиксели*Кадры) : 0.214
Размер потока : 3,88 Гбайт (90%)
Основные цвета : BT.709-5, BT.1361, IEC 61966-2-4, SMPTE RP177
Характеристики трансфера : BT.709-5, BT.1361
Коэффициенты матрицы : BT.709-5, BT.1361, IEC 61966-2-4 709, SMPTE RP177

Аудио #1
Идентификатор : 1310 (0x51E)
Идентификатор меню : 70 (0x46)
Формат : MPEG Audio
Версия формата : Version 1
Профиль формата : Layer 2
Идентификатор кодека : 4
Продолжительность : 50 м.
Вид битрейта : Постоянный
Битрейт : 192 Кбит/сек
Каналы : 2 канала
Частота : 48,0 КГц
Метод сжатия : С потерями
Задержка видео : -990 мс.
Размер потока : 68,8 Мбайт (2%)
Язык : Russian

Аудио #2
Идентификатор : 1320 (0x528)
Идентификатор меню : 70 (0x46)
Формат : AC-3
Формат/Информация : Audio Coding 3
Расширение режима : CM (complete main)
Параметр Endianness формата : Big
Идентификатор кодека : 6
Продолжительность : 50 м.
Вид битрейта : Постоянный
Битрейт : 448 Кбит/сек
Каналы : 2 канала
Расположение каналов : Front: L R
Частота : 48,0 КГц
Битовая глубина : 16 бит
Метод сжатия : С потерями
Задержка видео : -993 мс.
Размер потока : 160 Мбайт (4%)
Язык : Russian

Меню
Идентификатор : 1305 (0x519)
Идентификатор меню : 70 (0x46)
Продолжительность : 50 м.
Список : 1300 (0x514) (AVC) / 1310 (0x51E) (MPEG Audio, Russian) / 1320 (0x528) (AC-3, Russian)
Язык : / Russian / Russian





   Похожие торренты   Торрент   Размер 
В этой теме нет новых непрочитанных сообщений. Приключение в Северном море / North Sea Adventure (2010) HDTVRip от ExKinoRay

1 | 3

700.5 МБ

В этой теме нет новых непрочитанных сообщений. Приключение в Северном море / North Sea Adventure (2010) HDTVRip-AVC от ExKinoRay

1 | 1

698.33 МБ

В этой теме нет новых непрочитанных сообщений. Захват в Северном море / North Sea Hijack (1979) DVDRip | P

92 | 20

1.46 ГБ

В этой теме нет новых непрочитанных сообщений. 44 минуты: Бойня в северном Голливуде / 44 Minutes: The North Hollywood Shoot-Out (2003) DVDRip-AVC | P

109 | 31

2.28 ГБ

В этой теме нет новых непрочитанных сообщений. 44 минуты: Бойня в северном Голливуде / 44 Minutes: The North Hollywood Shoot-Out (2003) DVD5

2 | 0

3.88 ГБ

В этой теме нет новых непрочитанных сообщений. Море. Горы. Керамзит [01-08 из 08] (2013) HDTV 1080i от MediaClub

93 | 27

31.27 ГБ

В этой теме нет новых непрочитанных сообщений. Море. Горы. Керамзит [01-04 из 08] (2013) HDTV 1080i от MediaClub

91 | 234

15.5 ГБ




Вы не можете начинать темы
Вы не можете отвечать на сообщения
Вы не можете редактировать свои сообщения
Вы не можете удалять свои сообщения
Вы не можете добавлять вложения

Перейти:  
Для Мосгорсуда, Роскомнадзора и рекламодателей: mosgorsud-torrent[собачка]yandex.ru
 Вход
ppkBB3cker v.2 © 2008-2014 @ PPK
[ Time : 0.032s | 17 Queries | GZIP : Off ]

Торрент трекер RUTOR.IN, Не можете зайти на rutor.org? Какой новый адрес рутор? Какое зеркало рутор? Не работает rutor.org и зеркала? Тогда наш торрент специально для вас. Rutor.in неофициальное зеркало rutor. В случае если у Вас заблокирован rutor или вдруг Вы не можете на него зайти, то Вы без труда сможете скачать бесплатно и без рекламы последние новинки кино, игр, сериалов и прочего у нас, на Rutor.in. Не нужно использовать прокси, чтобы зайти на рутор, достаточно воспользоваться нашим ресурсом. Все новые фильмы, игры, сериалы, книги и музыка за 2013 и 2014 годы через торрент бесплатно. Скачивайте фильмы в хорошем качестве, игры для пк, xbox, playstation без регистрации. У нас вы найдете новые Зарубежные сериалы и Русские сериалы 2013, 2014, 2015 годов. Оставайтесь с нами, качайте любимые фильмы, игры, сериалы, книги и музыку.
cron