img image001 image001 image001 image001 image001 image001 image001 image001 image001 image001 image001 image001 image001 image001 image001

Planets Sun Sun Sun
Статистика раздачи
Автор: Снежана | Размер: 8.77 ГБ | Добавлен: 24 июл 2013
Раздают: 0    Качают: 1
Скачать торрент
Скачать торрент
Описание торрента

СообщениеДобавлено: 24 июл 2013 

#77

Название: Аравия
Оригинальное название: MacGillivray Freeman's Arabia
Год выхода: 2011
Страна: США
Жанр: Документальный
Режиссер: Грег МакГилври

О фильме: Фильм от создателя "Приключение в Гранд Каньоне - Река в опасности". Двадцатидвухлетний арабский студент Чикагского университета Хамза Джемджум возвращается домой, чтобы показать родную культуру Саудовской Аравии. Тут и Эр-Рияд, и Медина, и Мекка во время хаджа...

Информация о файле:
Качество: BD Remux
Продолжительность: 00:46:08
Язык (перевод):
1) русский двухголосый закадровый (Омикрон)
2) русский двухголосый закадровый (Омикрон)
3) оригинальная английская дорожка
Субтитры: нет
Формат: MKV

Видео: MPEG-4 AVC, 1920x1080, 23.2 Mbps, 23.976 fps, 16:9, High Profile 4.1
Аудио 1: DTS 5.1, 48 kHz, 1510 kbps
Аудио 2: AC3 5.1, 48 kHz, 448 kbps
Аудио 3: DTS 5.1, 48 kHz, 1510 kbps

General
Unique ID : 222613679157631240023280297509525233576 (0xA779D5C7472494378076DEF22DA99FA8)
Complete name : D:Аравия.2011.BDRemux.(1080p).mkv
Format : Matroska
Format version : Version 1
File size : 8.77 GiB
Duration : 46mn 8s
Overall bit rate mode : Variable
Overall bit rate : 27.2 Mbps
Encoded date : UTC 2012-03-11 21:20:15
Writing application : mkvmerge v2.1.0 ('Another Place To Fall') built on Aug 19 2007 13:40:07
Writing library : libebml v0.7.7 + libmatroska v0.8.1

Video
ID : 1
Format : AVC
Format/Info : Advanced Video Codec
Format profile : High@L4.1
Format settings, CABAC : Yes
Format settings, ReFrames : 2 frames
Format settings, GOP : M=1, N=10
Codec ID : V_MPEG4/ISO/AVC
Duration : 46mn 8s
Bit rate mode : Variable
Bit rate : 23.2 Mbps
Width : 1 920 pixels
Height : 1 080 pixels
Display aspect ratio : 16:9
Frame rate : 23.976 fps
Color space : YUV
Chroma subsampling : 4:2:0
Bit depth : 8 bits
Scan type : Progressive
Bits/(Pixel*Frame) : 0.467
Stream size : 7.48 GiB (85%)
Title : Arabia
Default : Yes
Forced : No

Audio #1
ID : 2
Format : DTS
Format/Info : Digital Theater Systems
Codec ID : A_DTS
Duration : 46mn 8s
Bit rate mode : Constant
Bit rate : 1 510 Kbps
Channel(s) : 6 channels
Channel positions : Front: L C R, Side: L R, LFE
Sampling rate : 48.0 KHz
Bit depth : 16 bits
Compression mode : Lossy
Stream size : 498 MiB (6%)
Title : Omicron
Language : Russian
Default : Yes
Forced : No

Audio #2
ID : 3
Format : AC-3
Format/Info : Audio Coding 3
Mode extension : CM (complete main)
Codec ID : A_AC3
Duration : 46mn 8s
Bit rate mode : Constant
Bit rate : 448 Kbps
Channel(s) : 6 channels
Channel positions : Front: L C R, Side: L R, LFE
Sampling rate : 48.0 KHz
Bit depth : 16 bits
Compression mode : Lossy
Stream size : 148 MiB (2%)
Title : Omicron
Language : Russian
Default : No
Forced : No

Audio #3
ID : 4
Format : DTS
Format/Info : Digital Theater Systems
Codec ID : A_DTS
Duration : 46mn 8s
Bit rate mode : Constant
Bit rate : 1 510 Kbps
Channel(s) : 6 channels
Channel positions : Front: L C R, Side: L R, LFE
Sampling rate : 48.0 KHz
Bit depth : 16 bits
Compression mode : Lossy
Stream size : 498 MiB (6%)
Title : English
Language : English
Default : No
Forced : No






   Похожие торренты   Торрент   Размер 
В этой теме нет новых непрочитанных сообщений. Аравия / MacGillivray Freeman's Arabia 3D (2011) BDRip 1080p

0 | 1

6.64 ГБ

В этой теме нет новых непрочитанных сообщений. Аравия / MacGillivray Freeman's Arabia (2010) BDrip 1080p | 3D-Video

11 | 2

6.85 ГБ

В этой теме нет новых непрочитанных сообщений. Аравия / IMAX - Arabia (2011) BDRip от KinoZalSat

1 | 3

701.56 МБ

В этой теме нет новых непрочитанных сообщений. BBC: Дикая Аравия / BBC: Wild Arabia [01-03 из 03] (2013) HDTVRip-AVC от Тorrent-Хzona

53 | 2

2.38 ГБ

В этой теме нет новых непрочитанных сообщений. Плачущий убийца / Crying Freeman (1995) BDRemux 1080p от MediaClub | P, A

19 | 5

20.28 ГБ

В этой теме нет новых непрочитанных сообщений. Через червоточину с Морганом Фрименом / Through the Wormhole with Morgan Freeman [S02] (2011) HDTVRip

22 | 7

6.3 ГБ

В этой теме нет новых непрочитанных сообщений. Через червоточину с Морганом Фрименом / Through the Wormhole with Morgan Freeman [S02] (2011) HDTVRip 720p

40 | 5

7.78 ГБ




Вы не можете начинать темы
Вы не можете отвечать на сообщения
Вы не можете редактировать свои сообщения
Вы не можете удалять свои сообщения
Вы не можете добавлять вложения

Перейти:  
Для Мосгорсуда, Роскомнадзора и рекламодателей: mosgorsud-torrent[собачка]yandex.ru
 Вход
ppkBB3cker v.2 © 2008-2014 @ PPK
[ Time : 0.055s | 15 Queries | GZIP : Off ]

Торрент трекер RUTOR.IN, Не можете зайти на rutor.org? Какой новый адрес рутор? Какое зеркало рутор? Не работает rutor.org и зеркала? Тогда наш торрент специально для вас. Rutor.in неофициальное зеркало rutor. В случае если у Вас заблокирован rutor или вдруг Вы не можете на него зайти, то Вы без труда сможете скачать бесплатно и без рекламы последние новинки кино, игр, сериалов и прочего у нас, на Rutor.in. Не нужно использовать прокси, чтобы зайти на рутор, достаточно воспользоваться нашим ресурсом. Все новые фильмы, игры, сериалы, книги и музыка за 2013 и 2014 годы через торрент бесплатно. Скачивайте фильмы в хорошем качестве, игры для пк, xbox, playstation без регистрации. У нас вы найдете новые Зарубежные сериалы и Русские сериалы 2013, 2014, 2015 годов. Оставайтесь с нами, качайте любимые фильмы, игры, сериалы, книги и музыку.
cron