img image001 image001 image001 image001 image001 image001 image001 image001 image001 image001 image001 image001 image001 image001 image001

Planets Sun Sun Sun
Статистика раздачи
Автор: Снежана | Размер: 16.47 ГБ | Добавлен: 24 июл 2013
Раздают: 0    Качают: 1
Скачать торрент
Скачать торрент
Описание торрента

СообщениеДобавлено: 24 июл 2013 

#77

Название: Прибрежные рассветы
Оригинальное название: Coastal Dawns
Год выхода: 2008
Страна: США
Жанр: Документальный, Видовой
Режиссер: Дэвид Коновер / David Conover

О фильме: Ещё два эпизода от создателей сериала Sunrise Earth.

Список серий:
1) Рассвет над Гавайями / Hawaii Daybreak
2) Рассвет над побережьем штата Мэн / Maine Coast Sunrise

Информация о файле:
Качество: BD Remux
Продолжительность: 00:52:36 + 00:52:36
Язык (перевод): оригинальная английская дорожка
Субтитры: русские, английские
Формат: MKV

Видео: VC-1, 1920x1080p, 23.976fps, 22mbps
Аудио: AC3, 5.1, 448kbps, 48kHz, 16bits
Код:
General
Format : Matroska
File size : 8.24 GiB
Duration : 52mn 35s
Overall bit rate : 22.4 Mbps
Writing application : mkvmerge v3.4.0 ('Rapunzel') built on May 15 2010 09:38:20
Writing library : libebml v0.8.0 + libmatroska v0.9.0

Video
ID : 1
Format : VC-1
Format profile : AP@L3
Codec ID : WVC1
Codec ID/Hint : Microsoft
Duration : 52mn 35s
Bit rate : 21.5 Mbps
Width : 1 920 pixels
Height : 1 080 pixels
Display aspect ratio : 16:9
Frame rate : 23.976 fps
Chroma subsampling : 4:2:0
Bit depth : 8 bits
Scan type : Progressive
Compression mode : Lossy
Bits/(Pixel*Frame) : 0.433
Stream size : 7.92 GiB (96%)
Title : Coastal Dawns - Hawaii
Language : English

Audio
ID : 2
Format : AC-3
Format/Info : Audio Coding 3
Mode extension : CM (complete main)
Codec ID : A_AC3
Duration : 52mn 35s
Bit rate mode : Constant
Bit rate : 448 Kbps
Channel(s) : 6 channels
Channel positions : Front: L C R, Side: L R, LFE
Sampling rate : 48.0 KHz
Bit depth : 16 bits
Compression mode : Lossy
Stream size : 169 MiB (2%)
Title : Noises
Language : English

Text #1
ID : 3
Format : UTF-8
Codec ID : S_TEXT/UTF8
Codec ID/Info : UTF-8 Plain Text
Title : Russian
Language : Russian

Text #2
ID : 4
Format : UTF-8
Codec ID : S_TEXT/UTF8
Codec ID/Info : UTF-8 Plain Text
Title : English
Language : English

Menu
00:00:00.000 : en:Прибрежные рассветы - Гавайи
00:00:20.000 : en:5:28 утра
00:04:49.998 : en:5:34 утра
00:08:16.746 : en:5:41 утра
00:12:10.771 : en:5:46 утра
00:17:05.274 : en:5:51 утра
00:20:02.159 : en:5:55 утра
00:27:05.832 : en:6:02 утра
00:31:22.213 : en:6:05 утра
00:35:04.268 : en:6:13 утра
00:38:37.064 : en:6:21 утра
00:42:44.937 : en:6:28 утра
00:47:27.469 : en:6:34 утра






   Похожие торренты   Торрент   Размер 
В этой теме нет новых непрочитанных сообщений. Прибрежные рассветы / Coastal Dawns (2008) BDRip от FilmRus

0 | 2

1.72 ГБ

В этой теме нет новых непрочитанных сообщений. Юркины рассветы (1974) DVDRip

146 | 19

3.44 ГБ

В этой теме нет новых непрочитанных сообщений. VA - Coastal Selections 002 (2016) MP3

0 | 3

169.15 МБ

В этой теме нет новых непрочитанных сообщений. Orphan Boy - Coastal Tones (2015) FLAC

18 | 0

347.63 МБ

В этой теме нет новых непрочитанных сообщений. Служба Спасения: Береговая Охрана / Search & Rescue 4: Coastal Heroes (2002) PC

13 | 3

724.17 МБ

В этой теме нет новых непрочитанных сообщений. Живые Пейзажи: Самые красивые Рассветы и Закаты / Living Landscapes: World's Most Beautiful Sunrises And Sunsets (2009) BDRip от HELLYWOOD

15 | 6

1.09 ГБ

В этой теме нет новых непрочитанных сообщений. Supreme NTM: On Est Encore La - Bercy 2008 (2008) BDRemux 1080p

0 | 0

17.85 ГБ




Вы не можете начинать темы
Вы не можете отвечать на сообщения
Вы не можете редактировать свои сообщения
Вы не можете удалять свои сообщения
Вы не можете добавлять вложения

Перейти:  
Для Мосгорсуда, Роскомнадзора и рекламодателей: mosgorsud-torrent[собачка]yandex.ru
 Вход
ppkBB3cker v.2 © 2008-2014 @ PPK
[ Time : 0.023s | 17 Queries | GZIP : Off ]

cron