img image001 image001 image001 image001 image001 image001 image001 image001 image001 image001 image001 image001 image001 image001 image001

Planets Sun Sun Sun
Статистика раздачи
Автор: Снежана | Размер: 530.93 МБ | Добавлен: 25 июл 2013
Раздают: 4    Качают: 1
Скачать торрент
Скачать торрент
Описание торрента

СообщениеДобавлено: 25 июл 2013 

#77

Информация о фильме
Название: Великая депрессия
Год выхода: 2009
Жанр: Документальный
Режиссер: Михаил Михеев
Текст читает: Александр Клюквин

О фильме:
24 октября 1929 года на Нью-Йоркской фондовой бирже произошел обвал. На Уолл-стрит началась паника. Но в первые дни обычные люди размеров катастрофы, надвигавшейся на США, конечно, не поняли. Даже когда в элитном круге ведущих финансистов страны началась волна самоубийств, общество только злорадствовало: алчность наказана! Уже потом этот день войдет во все учебники под именем "черный четверг". Это потом все, что случится с Америкой, назовут "Великой депрессией". Это потом самый тяжелый экономический кризис ХХ века будут раскладывать на составляющие, искать причины и множество раз ошибаться в выборе путей выхода из него. А тогда, в 1929 году, уже через несколько месяцев страну захлестнет волна банкротств, миллионы людей окажутся на улице, банки рухнут под атакой вкладчиков, желающих немедленно вернуть свои деньги, по всей стране кризис разорит фермерские хозяйства, промышленность встанет, деньги обесценятся. И в эти же первые месяцы правительство США выберет тактику, которую потом все ведущие экономисты мира признают роковой и ошибочной - политику невмешательства государства в дела рынка и святой убежденности в том, что рынок просто обязан сам себя спасти...

Страна: Россия
Студия: ГТРК
Продолжительность: 00:43:58

General
Complete name : Velikaja.depressia.2009.DivX.TVRip.avi
Format : AVI
Format/Info : Audio Video Interleave
File size : 531 MiB
Duration : 43mn 58s
Overall bit rate : 1 688 Kbps
Writing library : VirtualDub build 30009/release
Video #0
ID : 0
Format : MPEG-4 Visual
Format settings, BVOP : 1
Format settings, QPel : No
Format settings, GMC : No warppoints
Format settings, Matrix : Default (H.263)
Muxing mode : Packed bitstream
Codec ID : DX50
Codec ID/Hint : DivX 5
Duration : 43mn 58s
Bit rate : 1 550 Kbps
Width : 704 pixels
Height : 400 pixels
Display aspect ratio : 16:9
Frame rate : 25.000 fps
Color space : YUV
Chroma subsampling : 4:2:0
Bit depth : 8 bits
Scan type : Progressive
Compression mode : Lossy
Bits/(Pixel*Frame) : 0.220
Stream size : 488 MiB (92%)
Writing library : DivX 6.8.5 (UTC 2009-08-20)
Audio #1
ID : 1
Format : MPEG Audio
Format version : Version 1
Format profile : Layer 3
Mode : Joint stereo
Mode extension : MS Stereo
Codec ID : 55
Codec ID/Hint : MP3
Duration : 43mn 58s
Bit rate mode : Constant
Bit rate : 128 Kbps
Channel(s) : 2 channels
Sampling rate : 48.0 KHz
Compression mode : Lossy
Stream size : 40.3 MiB (8%)
Alignment : Split accross interleaves
Interleave, duration : 40 ms (1.00 video frame)
Interleave, preload duration : 500 ms
Writing library : LAME3.97


Файл
Кодек: DivX
Качество: TVRip
Видео: 704x400, 1550 kbps, 25 fps
Звук: MP3, 128кб/с, 2 канала

Семпл

, , , ,



   Похожие торренты   Торрент   Размер 
В этой теме нет новых непрочитанных сообщений. Депрессия (1991) TVRip

167 | 31

2.26 ГБ

В этой теме нет новых непрочитанных сообщений. СПИД - не существует! Великая ложь медиков (2009) TVRip

2 | 2

67.99 МБ

В этой теме нет новых непрочитанных сообщений. Великая тайна воды (2006) TVRip

21 | 3

638.13 МБ

В этой теме нет новых непрочитанных сообщений. Великая тайна воды - Сборник фильмов о воде [22 фильма] (2003-2011) DVDRip, TVRip, SATRip

47 | 18

12.59 ГБ

В этой теме нет новых непрочитанных сообщений. VA - Музыкотерапия. Депрессия (2011) MP3

11 | 9

83.32 МБ

В этой теме нет новых непрочитанных сообщений. Великая морская баталия (2009) PC

345 | 6

7.91 МБ

В этой теме нет новых непрочитанных сообщений. Депрессия и друзья / Depression et des potes (2012) HDRip

9 | 2

1.46 ГБ




Вы не можете начинать темы
Вы не можете отвечать на сообщения
Вы не можете редактировать свои сообщения
Вы не можете удалять свои сообщения
Вы не можете добавлять вложения

Перейти:  
Для Мосгорсуда, Роскомнадзора и рекламодателей: mosgorsud-torrent[собачка]yandex.ru
 Вход
ppkBB3cker v.2 © 2008-2014 @ PPK
[ Time : 0.020s | 14 Queries | GZIP : On ]

Торрент трекер RUTOR.IN, Не можете зайти на rutor.org? Какой новый адрес рутор? Какое зеркало рутор? Не работает rutor.org и зеркала? Тогда наш торрент специально для вас. Rutor.in неофициальное зеркало rutor. В случае если у Вас заблокирован rutor или вдруг Вы не можете на него зайти, то Вы без труда сможете скачать бесплатно и без рекламы последние новинки кино, игр, сериалов и прочего у нас, на Rutor.in. Не нужно использовать прокси, чтобы зайти на рутор, достаточно воспользоваться нашим ресурсом. Все новые фильмы, игры, сериалы, книги и музыка за 2013 и 2014 годы через торрент бесплатно. Скачивайте фильмы в хорошем качестве, игры для пк, xbox, playstation без регистрации. У нас вы найдете новые Зарубежные сериалы и Русские сериалы 2013, 2014, 2015 годов. Оставайтесь с нами, качайте любимые фильмы, игры, сериалы, книги и музыку.