img image001 image001 image001 image001 image001 image001 image001 image001 image001 image001 image001 image001 image001 image001 image001

Planets Sun Sun Sun
Статистика раздачи
Автор: Снежана | Размер: 869.79 МБ | Добавлен: 25 июл 2013
Раздают: 0    Качают: 1
Скачать торрент
Скачать торрент
Описание торрента

СообщениеДобавлено: 25 июл 2013 



Информация о фильме
Название: Маленькие капитаны
Год выхода: 2008
Жанр: Документальный
Режиссер: Владислав Арясов
Текст читает: Валентин Гафт

О фильме:
О разных периодах истории кадетских корпусов, продолжением которых стали знаменитые Нахимовское и Суворовское училища.
Фильм 1-й. Маленькие капитаны. История кадетских корпусов, как и вся военная история России, блистательна и трагична. Будучи начальным и очень важным звеном в системе военного образования, кадетские корпуса сыграли решающую роль в становлении в России офицерского сословия, в сохранении и передаче из поколения в поколение воинских традиций.
Фильм 2-й. Кадеты железного века. XIX век - золотой век кадетского образования. Кадетские корпуса постоянно находились в сфере императорского внимания, в них преподавали известные ученые, сложилась стройная система обучения и воспитания будущих офицеров.
Фильм 3-й. Советские кадеты. Создание военно-учебных заведений для обучения и воспитания детей воинов Красной армии, партизан Великой Отечественной войны, советских партийных работников, рабочих и колхозников, погибших на фронтах войны и в фашистской оккупации. В этих училищах получали среднее образование. Училища создавались по типу кадетских корпусов дореволюционной России и им присваивались названия "Суворовские" и "Нахимовские".
Фильм 4-й. Служить покинутой Отчизне. История кадетских корпусов, созданных за пределами России. В первые годы революции почти все кадетские корпуса были закрыты, некоторые из них начали функционировать за границей: в Королевстве сербов, хорватов, словенцев, в городе Белая Церковь - Крымский кадетский корпус; в городе Сараево - кадетский корпус имени Великого князя Константина Константиновича; во Франции, в Версале - корпус-лицей имени императора Николая Второго.

General
Complete name : Malenkie.kapitany.2008.DivX.TVRip.avi
Format : AVI
Format/Info : Audio Video Interleave
File size : 215 MiB
Duration : 25mn 59s
Overall bit rate : 1 173 Kbps
Writing library : VirtualDub-MPEG2 build 24586/release
Video #0
ID : 0
Format : MPEG-4 Visual
Format settings, BVOP : 2
Format settings, QPel : No
Format settings, GMC : No warppoints
Format settings, Matrix : Default (MPEG)
Muxing mode : Packed bitstream
Codec ID : DX50
Codec ID/Hint : DivX 5
Duration : 25mn 59s
Bit rate : 1 099 Kbps
Width : 640 pixels
Height : 480 pixels
Display aspect ratio : 4:3
Frame rate : 25.000 fps
Color space : YUV
Chroma subsampling : 4:2:0
Bit depth : 8 bits
Scan type : Progressive
Compression mode : Lossy
Bits/(Pixel*Frame) : 0.143
Stream size : 202 MiB (94%)
Writing library : DivX 6.8.0 (UTC 2007-12-04)
Audio #1
ID : 1
Format : MPEG Audio
Format version : Version 1
Format profile : Layer 3
Codec ID : 55
Codec ID/Hint : MP3
Duration : 25mn 59s
Bit rate mode : Constant
Bit rate : 64.0 Kbps
Channel(s) : 1 channel
Sampling rate : 48.0 KHz
Compression mode : Lossy
Stream size : 11.7 MiB (5%)
Alignment : Split accross interleaves
Interleave, duration : 40 ms (1.00 video frame)
Interleave, preload duration : 500 ms

Страна: Россия
Студия: Телеканал "Культура"
Продолжительность: 4 x ~ 00:26:00
Язык: Русский

Файл
Кодек: DivX
Качество: TVRip
Видео: 640x480, ~ 1099 kbps, 25 fps
Звук: MP3, 64кб/с, 1 канал

Семпл

, , , , ,



   Похожие торренты   Торрент   Размер 
В этой теме нет новых непрочитанных сообщений. Космическая сила : капитаны / Space force : captains (2008) PC

30 | 5

1.02 ГБ

В этой теме нет новых непрочитанных сообщений. Маленькие ангелы: Рождественская сказка / Маленькие ангелы / Little Angels: The Brightest Christmas (1999) DVDRip от KinoRay & Sheikn

70 | 30

723.54 МБ

В этой теме нет новых непрочитанных сообщений. Маленькие сказки большого леса [1 часть] (2008) DVDRip - LOOK - Firebit

11 | 3

878.62 МБ

В этой теме нет новых непрочитанных сообщений. Феи. Маленькие приключения / Disney Fairies. Shorts [01-07 из 49] (2008-2014) DVDRip | D

680 | 21

361.06 МБ

В этой теме нет новых непрочитанных сообщений. Феи. Маленькие приключения / Disney Fairies. Shorts [09-49 из 49] (2008-2014) WEBRip 1080p | D

718 | 83

2.61 ГБ

В этой теме нет новых непрочитанных сообщений. Три маленькие белые мышки. День рождения морской крысы / Marvellous Mice Adventures - Sea Rat's Birthday (2008) PC

30 | 9

1.36 ГБ

В этой теме нет новых непрочитанных сообщений. Капитаны (2010) DVDRip от КинозалSAT

3 | 3

700.02 МБ




Вы не можете начинать темы
Вы не можете отвечать на сообщения
Вы не можете редактировать свои сообщения
Вы не можете удалять свои сообщения
Вы не можете добавлять вложения

Перейти:  
Для Мосгорсуда, Роскомнадзора и рекламодателей: mosgorsud-torrent[собачка]yandex.ru
 Вход
ppkBB3cker v.2 © 2008-2014 @ PPK
[ Time : 0.038s | 15 Queries | GZIP : Off ]

Торрент трекер RUTOR.IN, Не можете зайти на rutor.org? Какой новый адрес рутор? Какое зеркало рутор? Не работает rutor.org и зеркала? Тогда наш торрент специально для вас. Rutor.in неофициальное зеркало rutor. В случае если у Вас заблокирован rutor или вдруг Вы не можете на него зайти, то Вы без труда сможете скачать бесплатно и без рекламы последние новинки кино, игр, сериалов и прочего у нас, на Rutor.in. Не нужно использовать прокси, чтобы зайти на рутор, достаточно воспользоваться нашим ресурсом. Все новые фильмы, игры, сериалы, книги и музыка за 2013 и 2014 годы через торрент бесплатно. Скачивайте фильмы в хорошем качестве, игры для пк, xbox, playstation без регистрации. У нас вы найдете новые Зарубежные сериалы и Русские сериалы 2013, 2014, 2015 годов. Оставайтесь с нами, качайте любимые фильмы, игры, сериалы, книги и музыку.
cron