img image001 image001 image001 image001 image001 image001 image001 image001 image001 image001 image001 image001 image001 image001 image001

Planets Sun Sun Sun
Статистика раздачи
Автор: Снежана | Размер: 697.83 МБ | Добавлен: 25 июл 2013
Раздают: 0    Качают: 2
Скачать торрент
Скачать торрент
Описание торрента

СообщениеДобавлено: 25 июл 2013 

#77

Информация о фильме
Название: Рожденные на воле
Оригинальное название: Born to Be Wild
Год выхода: 2011
Жанр: документальный
Режиссер: Дэвид Ликли
В ролях: Морган Фриман, Бируте Галдикас, Дафна Шелдрик

О фильме:
Две удивительные и трогательные истории о том, как осиротевшие дикие животные растут, готовясь к взрослой жизни, при преданной поддержке неординарных людей. В тропических лесах Борнео знаменитый приматолог доктор Бирут Гальдикас занимается реабилитацией детёныша орангутангов, а на засушливых саваннах Кении зоолог Дэйм Дафна Шелдрик помогает слонёнку вернуться обратно в дикую природу.



Выпущено: США / Imax Filmed Entertainment
Продолжительность: 00:40:49
Озвучивание: Профессиональное (многоголосое) [студия "Омикрон"]

Файл
Формат: AVI (XviD)
Качество: HDRip
Видео: 1932 kb/s, 720x400
Аудио: AC3, 448 kb/s (6 ch)
Скачать: Сэмпл

Общее
Полное имя : C:киноuploadIMAX.Rozhdennye.na.vole.2011.XviD.HDRip.IRONCLUB.avi
Формат : AVI
Формат/Информация : Audio Video Interleave
Размер файла : 698 Мбайт
Продолжительность : 40 м.
Общий поток : 2390 Кбит/сек
Программа кодирования : VirtualDubMod 1.5.10.2 (build 2540/release)
Библиотека кодирования : VirtualDubMod build 2540/release

Видео
Идентификатор : 0
Формат : MPEG-4 Visual
Профиль формата : Advanced Simple@L5
Параметр BVOP формата : 2
Параметр QPel формата : Нет
Параметр GMC формата : Без точки перехода
Параметр матрицы формата : Выборочная
Идентификатор кодека : XVID
Идентификатор кодека/Подсказка : XviD
Продолжительность : 40 м.
Битрейт : 1932 Кбит/сек
Ширина : 720 пикселей
Высота : 400 пикселей
Соотношение сторон : 16:9
Частота кадров : 23,976 кадра/сек
Цветовое пространство : YUV
Субдискретизация насыщенности : 4:2:0
Битовая глубина : 8 бит
Тип развёртки : Прогрессивная
Метод сжатия : С потерями
Бит/(Пиксели*Кадры) : 0.280
Размер потока : 564 Мбайт (81%)
Библиотека кодирования : XviD 1.2.1 (UTC 2008-12-04)

Аудио
Идентификатор : 1
Формат : AC-3
Формат/Информация : Audio Coding 3
Расширение режима : CM (complete main)
Параметр Endianness формата : Big
Идентификатор кодека : 2000
Продолжительность : 40 м.
Вид битрейта : Постоянный
Битрейт : 448 Кбит/сек
Каналы : 6 каналов
Расположение каналов : Front: L C R, Side: L R, LFE
Частота : 48,0 КГц
Битовая глубина : 16 бит
Метод сжатия : С потерями
Размер потока : 131 Мбайт (19%)
Выравнивание : Разделение по промежуткам
Продолжительность промежутка: 42 мс. (1,00 видеокадр)
Время предзагрузки промежутка: 500 мс.


Скриншоты



Релиз от:



   Похожие торренты   Торрент   Размер 
В этой теме нет новых непрочитанных сообщений. IMAX: Рожденные на воле / IMAX: Born to Be Wild (2011) BDRip-AVC от ExKinoRay

0 | 3

846.3 МБ

В этой теме нет новых непрочитанных сообщений. IMAX: Рожденные на воле / Born to Be Wild (2011) BDRip 1080p

1 | 1

6.16 ГБ

В этой теме нет новых непрочитанных сообщений. IMAX: Рожденные на воле / Born to Be Wild (2011) BDRip 720p

0 | 2

3.36 ГБ

В этой теме нет новых непрочитанных сообщений. IMAX: Рожденные на воле / Born to Be Wild (2011) BDRip 1080p | 3D-Video | P2

7 | 2

7.59 ГБ

В этой теме нет новых непрочитанных сообщений. Рожденные на воле / Born to Be Wild (2011) BDRip от HELLYWOOD

3 | 3

891.68 МБ

В этой теме нет новых непрочитанных сообщений. Рожденные проигрывать / Рожденные неприкаянными / The Born Losers (1967) DVDRip

4 | 2

1.46 ГБ

В этой теме нет новых непрочитанных сообщений. Рожденные в СССР: 21 год / Born in the USSR: 21 Up (2005) DVDRip

34 | 9

1.37 ГБ




Вы не можете начинать темы
Вы не можете отвечать на сообщения
Вы не можете редактировать свои сообщения
Вы не можете удалять свои сообщения
Вы не можете добавлять вложения

Перейти:  
Для Мосгорсуда, Роскомнадзора и рекламодателей: mosgorsud-torrent[собачка]yandex.ru
 Вход
ppkBB3cker v.2 © 2008-2014 @ PPK
[ Time : 0.879s | 16 Queries | GZIP : Off ]
CGP output time : 0.053s | 5 Queries | GZIP : Off

Торрент трекер RUTOR.IN, Не можете зайти на rutor.org? Какой новый адрес рутор? Какое зеркало рутор? Не работает rutor.org и зеркала? Тогда наш торрент специально для вас. Rutor.in неофициальное зеркало rutor. В случае если у Вас заблокирован rutor или вдруг Вы не можете на него зайти, то Вы без труда сможете скачать бесплатно и без рекламы последние новинки кино, игр, сериалов и прочего у нас, на Rutor.in. Не нужно использовать прокси, чтобы зайти на рутор, достаточно воспользоваться нашим ресурсом. Все новые фильмы, игры, сериалы, книги и музыка за 2013 и 2014 годы через торрент бесплатно. Скачивайте фильмы в хорошем качестве, игры для пк, xbox, playstation без регистрации. У нас вы найдете новые Зарубежные сериалы и Русские сериалы 2013, 2014, 2015 годов. Оставайтесь с нами, качайте любимые фильмы, игры, сериалы, книги и музыку.