img image001 image001 image001 image001 image001 image001 image001 image001 image001 image001 image001 image001 image001 image001 image001

Planets Sun Sun Sun
Статистика раздачи
Автор: Снежана | Размер: 6.16 ГБ | Добавлен: 25 июл 2013
Раздают: 1    Качают: 1
Скачать торрент
Скачать торрент
Описание торрента

СообщениеДобавлено: 25 июл 2013 

#77

Информация о фильме
Название: IMAX: Рожденные на воле
Оригинальное название: IMAX: Born to Be Wild
Год выхода: 2011
Жанр: Документальный, природа, фауна
Режиссер: Дэвид Ликли
В ролях: Морган Фримен, Бируте Галдикас, Дафна Шелдрик

О фильме: Две удивительные и трогательные истории о том, как осиротевшие дикие животные растут, готовясь к взрослой жизни, при преданной поддержке неординарных людей. В тропических лесах Борнео знаменитый приматолог доктор Бирут Гальдикас занимается реабилитацией детёныша орангутангов, а на засушливых саваннах Кении зоолог Дэйм Дафна Шелдрик помогает слонёнку вернуться обратно в дикую природу.



Выпущено: США, Imax Filmed Entertainment
Продолжительность: 00:40:49
Перевод: Профессиональный (двухголосый) [студия "Омикрон"]

Файл
Формат: MKV
Качество: BDRip (1080p)
Видео: MPEG-4 AVC, 18.5 Мбит/с, 1920x1080, 23.976 кадр/с
Аудио: Русский, английский (DTS, 6 ch, 1536 Кбит/с)
Субтитры: Английские, французские, испанские
Размер: 6.16 ГБ
Скачать: Сэмпл

Общее
Уникальный идентификатор : 202154577527998991654401324238619466456 (0x98158E305F78BAA1834FA194B782DAD8)
Полное имя : C:киноuploadIMAX.Rozhdennye.na.vole.2011.x264.BDRip.(1080p).mkv
Формат : Matroska
Версия формата : Version 2
Размер файла : 6,16 Гбайт
Продолжительность : 40 м.
Общий поток : 21,6 Мбит/сек
Название фильма : IMAX - Born to Be Wild (2011) - Release for HDCLUB
Дата кодирования : UTC 2012-04-19 06:09:04
Программа кодирования : mkvmerge v3.2.0 ('Beginnings') built on Feb 12 2010 16:46:17
Библиотека кодирования : libebml v0.7.9 + libmatroska v0.8.1

Видео
Идентификатор : 1
Формат : AVC
Формат/Информация : Advanced Video Codec
Профиль формата : High@L4.1
Параметр CABAC формата : Да
Параметр ReFrames формата : 4 кадра
Идентификатор кодека : V_MPEG4/ISO/AVC
Продолжительность : 40 м.
Битрейт : 18,5 Мбит/сек
Ширина : 1920 пикселей
Высота : 1080 пикселей
Соотношение сторон : 16:9
Частота кадров : 23,976 кадра/сек
Цветовое пространство : YUV
Субдискретизация насыщенности : 4:2:0
Битовая глубина : 8 бит
Тип развёртки : Прогрессивная
Бит/(Пиксели*Кадры) : 0.372
Размер потока : 5,17 Гбайт (84%)
Заголовок : IMAX - Born to Be Wild (2011) - Release for HDCLUB
Библиотека кодирования : x264 core 122 r2184 5c85e0a
Настройки программы : cabac=1 / ref=4 / deblock=1:-3:-3 / analyse=0x3:0x133 / me=tesa / subme=10 / psy=1 / psy_rd=1.05:0.00 / mixed_ref=1 / me_range=24 / chroma_me=1 / trellis=2 / 8x8dct=1 / cqm=0 / deadzone=21,11 / fast_pskip=0 / chroma_qp_offset=-2 / threads=12 / sliced_threads=0 / nr=0 / decimate=0 / interlaced=0 / bluray_compat=0 / constrained_intra=0 / bframes=8 / b_pyramid=2 / b_adapt=2 / b_bias=0 / direct=3 / weightb=1 / open_gop=0 / weightp=2 / keyint=250 / keyint_min=23 / scenecut=40 / intra_refresh=0 / rc_lookahead=60 / rc=2pass / mbtree=0 / bitrate=18500 / ratetol=1.0 / qcomp=0.75 / qpmin=0 / qpmax=69 / qpstep=4 / cplxblur=20.0 / qblur=0.5 / vbv_maxrate=50000 / vbv_bufsize=62500 / nal_hrd=none / ip_ratio=1.40 / pb_ratio=1.30 / aq=1:0.70
Язык : English
Default : Нет
Forced : Нет

Аудио #1
Идентификатор : 2
Формат : DTS
Формат/Информация : Digital Theater Systems
Идентификатор кодека : A_DTS
Продолжительность : 40 м.
Вид битрейта : Постоянный
Битрейт : 1510 Кбит/сек
Каналы : 6 каналов
Расположение каналов : Front: L C R, Side: L R, LFE
Частота : 48,0 КГц
Битовая глубина : 24 бит
Метод сжатия : С потерями
Размер потока : 441 Мбайт (7%)
Заголовок : DTS 5.1 @ 1536 kbps - Двухголосый закадровый, студия "Омикрон"
Язык : Russian
Default : Да
Forced : Нет

Аудио #2
Идентификатор : 3
Формат : DTS
Формат/Информация : Digital Theater Systems
Идентификатор кодека : A_DTS
Продолжительность : 40 м.
Вид битрейта : Постоянный
Битрейт : 1510 Кбит/сек
Каналы : 6 каналов
Расположение каналов : Front: L C R, Side: L R, LFE
Частота : 48,0 КГц
Битовая глубина : 24 бит
Метод сжатия : С потерями
Задержка видео : 11 мс.
Размер потока : 441 Мбайт (7%)
Заголовок : DTS 5.1 @ 1536 kbps
Язык : English
Default : Нет
Forced : Нет

Текст #1
Идентификатор : 4
Формат : PGS
Идентификатор кодека : S_HDMV/PGS
Идентификатор кодека/Информация : The same subtitle format used on BDs/HD-DVDs
Язык : English
Default : Нет
Forced : Нет

Текст #2
Идентификатор : 5
Формат : PGS
Идентификатор кодека : S_HDMV/PGS
Идентификатор кодека/Информация : The same subtitle format used on BDs/HD-DVDs
Язык : French
Default : Нет
Forced : Нет

Текст #3
Идентификатор : 6
Формат : PGS
Идентификатор кодека : S_HDMV/PGS
Идентификатор кодека/Информация : The same subtitle format used on BDs/HD-DVDs
Язык : Spanish
Default : Нет
Forced : Нет

Меню
00:00:00.000 : en:00:00:00.000
00:10:03.770 : en:00:10:03.770
00:19:19.700 : en:00:19:19.700
00:29:32.896 : en:00:29:32.896
00:39:07.887 : en:00:39:07.887


Скриншоты



Релиз от:



   Похожие торренты   Торрент   Размер 
В этой теме нет новых непрочитанных сообщений. IMAX: Рожденные на воле / Born to Be Wild (2011) BDRip 1080p | 3D-Video | P2

7 | 2

7.59 ГБ

В этой теме нет новых непрочитанных сообщений. IMAX: Рожденные на воле / IMAX: Born to Be Wild (2011) BDRip-AVC от ExKinoRay

0 | 3

846.3 МБ

В этой теме нет новых непрочитанных сообщений. IMAX: Рожденные на воле / Born to Be Wild (2011) BDRip 720p

0 | 2

3.36 ГБ

В этой теме нет новых непрочитанных сообщений. IMAX: Рожденные на воле / Born to Be Wild (2011) HDRip

0 | 2

697.83 МБ

В этой теме нет новых непрочитанных сообщений. Рожденные на воле / Born to Be Wild (2011) BDRip от HELLYWOOD

3 | 3

891.68 МБ

В этой теме нет новых непрочитанных сообщений. Рожденные проигрывать / Рожденные неприкаянными / The Born Losers (1967) DVDRip

4 | 2

1.46 ГБ

В этой теме нет новых непрочитанных сообщений. Рожденные в СССР: 21 год / Born in the USSR: 21 Up (2005) DVDRip

34 | 9

1.37 ГБ




Вы не можете начинать темы
Вы не можете отвечать на сообщения
Вы не можете редактировать свои сообщения
Вы не можете удалять свои сообщения
Вы не можете добавлять вложения

Перейти:  
Для Мосгорсуда, Роскомнадзора и рекламодателей: mosgorsud-torrent[собачка]yandex.ru
 Вход
ppkBB3cker v.2 © 2008-2014 @ PPK
[ Time : 0.057s | 14 Queries | GZIP : Off ]

Торрент трекер RUTOR.IN, Не можете зайти на rutor.org? Какой новый адрес рутор? Какое зеркало рутор? Не работает rutor.org и зеркала? Тогда наш торрент специально для вас. Rutor.in неофициальное зеркало rutor. В случае если у Вас заблокирован rutor или вдруг Вы не можете на него зайти, то Вы без труда сможете скачать бесплатно и без рекламы последние новинки кино, игр, сериалов и прочего у нас, на Rutor.in. Не нужно использовать прокси, чтобы зайти на рутор, достаточно воспользоваться нашим ресурсом. Все новые фильмы, игры, сериалы, книги и музыка за 2013 и 2014 годы через торрент бесплатно. Скачивайте фильмы в хорошем качестве, игры для пк, xbox, playstation без регистрации. У нас вы найдете новые Зарубежные сериалы и Русские сериалы 2013, 2014, 2015 годов. Оставайтесь с нами, качайте любимые фильмы, игры, сериалы, книги и музыку.