img image001 image001 image001 image001 image001 image001 image001 image001 image001 image001 image001 image001 image001 image001 image001

Planets Sun Sun Sun
Статистика раздачи
Автор: Снежана | Размер: 4.05 ГБ | Добавлен: 25 июл 2013
Раздают: 4    Качают: 1
Скачать торрент
Скачать торрент
Описание торрента

СообщениеДобавлено: 25 июл 2013 

#77

Информация о фильме
Название: Катание по Марсу
Оригинальное название: IMAX: Roving Mars
Год выхода: 2006
Жанр: Документальный
Режиссер: Джордж Батлер / George Butler
В ролях: Пол Ньюман, Стивен Скуайрес, Вейн Ли, Джон Бек Хофманн, Роб Мэннинг

О фильме: Фильм повествует о программе NASA по запуску 2 марсоходов, каждый из которых стал уникальным роботизированным механизмом, чьи технологии превзошли умственные способности любого человека, названия которым "Дух" и "Возможность". Их послали на Марс, где они успешно приземлились летом 2003 года..


Страна: США
Продолжительность: 00:39:56
Перевод: Профессиональный (одноголосый, закадровый) [студия Омикрон]
Cубтитры: русские
Оригинальная аудиодорожка: английский

Файл
Качество: BDRip 1080p
Формат: MKV
Видео кодек: x264
Аудио кодек: DTS
Видео: x264, 1920x1080 [16:9], 23.976 fps, 11.5 Mbps
Аудио#1: Russian: 48 kHz/16-bit, DTS, 3/2 (L,C,R,l,r) + LFE ch, ~1510.00 kbps avg | "Омикрон"
Аудио#2: English: 48 kHz/16-bit, DTS, 3/2 (L,C,R,l,r) + LFE ch, ~1510.00 kbps avg
Формат субтитров: SoftSub (srt)

Семпл

*Русская дорожка получена наложением чистого голоса.
*Сохранены оригинальные чаптеры как на Blu-ray.
*Перевод и озвучивание осуществлены в рамках сервиса "Озвучивание". Спонсоры: gelom, levanevski, Der__Gott, Кириллка, taras58, kalina08, Turko, LibrarianA..
General
Unique ID : 187315252422180816276984924211417124755 (0x8CEB9AF96640874B9F27EBD0D2030F93)
Complete name : IMAX - Roving Mars.2006.1080p.BDRip.mkv
Format : Matroska
Format version : Version 2
File size : 4.05 GiB
Duration : 39mn 56s
Overall bit rate : 14.5 Mbps
Encoded date : UTC 2012-04-23 15:27:22
Writing application : mkvmerge v4.4.0 ('Die Wiederkehr') сборка от Oct 31 2010 21:52:48
Writing library : libebml v1.0.0 + libmatroska v1.0.0

Video
ID : 1
Format : AVC
Format/Info : Advanced Video Codec
Format profile : High@L4.1
Format settings, CABAC : Yes
Format settings, ReFrames : 5 frames
Codec ID : V_MPEG4/ISO/AVC
Duration : 39mn 56s
Bit rate : 11.5 Mbps
Width : 1 920 pixels
Height : 1 080 pixels
Display aspect ratio : 16:9
Frame rate : 23.976 fps
Color space : YUV
Chroma subsampling : 4:2:0
Bit depth : 8 bits
Scan type : Progressive
Bits/(Pixel*Frame) : 0.231
Stream size : 3.13 GiB (77%)
Writing library : x264 core 119 r2106 07efeb4
Encoding settings : cabac=1 / ref=5 / deblock=1:-3:-3 / analyse=0x3:0x113 / me=umh / subme=10 / psy=1 / psy_rd=1.00:0.20 / mixed_ref=1 / me_range=48 / chroma_me=1 / trellis=2 / 8x8dct=1 / cqm=0 / deadzone=21,11 / fast_pskip=0 / chroma_qp_offset=-3 / threads=8 / sliced_threads=0 / nr=0 / decimate=1 / interlaced=0 / bluray_compat=0 / constrained_intra=0 / bframes=11 / b_pyramid=2 / b_adapt=2 / b_bias=0 / direct=3 / weightb=1 / open_gop=0 / weightp=2 / keyint=250 / keyint_min=23 / scenecut=40 / intra_refresh=0 / rc_lookahead=150 / rc=2pass / mbtree=1 / bitrate=11503 / ratetol=1.0 / qcomp=0.60 / qpmin=0 / qpmax=69 / qpstep=4 / cplxblur=20.0 / qblur=0.5 / ip_ratio=1.40 / aq=1:1.00
Language : English
Default : Yes
Forced : No

Audio #1
ID : 2
Format : DTS
Format/Info : Digital Theater Systems
Codec ID : A_DTS
Duration : 39mn 56s
Bit rate mode : Constant
Bit rate : 1 510 Kbps
Channel(s) : 6 channels
Channel positions : Front: L C R, Side: L R, LFE
Sampling rate : 48.0 KHz
Bit depth : 24 bits
Compression mode : Lossy
Stream size : 431 MiB (10%)
Title : VO-Омикрон
Language : Russian
Default : Yes
Forced : No

Audio #2
ID : 3
Format : DTS
Format/Info : Digital Theater Systems
Codec ID : A_DTS
Duration : 39mn 56s
Bit rate mode : Constant
Bit rate : 1 510 Kbps
Channel(s) : 6 channels
Channel positions : Front: L C R, Side: L R, LFE
Sampling rate : 48.0 KHz
Bit depth : 24 bits
Compression mode : Lossy
Stream size : 431 MiB (10%)
Language : English
Default : No
Forced : No

Text #1
ID : 4
Format : UTF-8
Codec ID : S_TEXT/UTF8
Codec ID/Info : UTF-8 Plain Text
Language : Russian
Default : No
Forced : No

Text #2
ID : 5
Format : UTF-8
Codec ID : S_TEXT/UTF8
Codec ID/Info : UTF-8 Plain Text
Language : English
Default : No
Forced : No

Menu
00:00:00.000 : en:00:00:00.000
00:07:47.425 : en:00:07:47.425
00:13:27.932 : en:00:13:27.932
00:15:52.952 : en:00:15:52.952
00:24:19.917 : en:00:24:19.917
00:29:14.419 : en:00:29:14.419
00:32:54.556 : en:00:32:54.556
00:33:59.204 : en:00:33:59.204
00:36:51.960 : en:00:36:51.960
00:37:59.694 : en:00:37:59.694

VIDEO ENCODING
------------------------------
x264 [info]: frame I:307 Avg QP:14.42 size:378119
x264 [info]: frame P:14783 Avg QP:16.63 size:134135
x264 [info]: frame B:42376 Avg QP:20.34 size: 31821



   Похожие торренты   Торрент   Размер 
В этой теме нет новых непрочитанных сообщений. Катание по Марсу / IMAX: Roving Mars (2006) BDRip 720p

1 | 1

2.45 ГБ

В этой теме нет новых непрочитанных сообщений. Катание по Марсу / IMAX: Roving Mars (2006) HDRip

0 | 2

699.77 МБ

В этой теме нет новых непрочитанных сообщений. IMAX. Арктика 3D / IMAX. To the Arctic 3D (2012) BDRip 1080p | 3D-Video от HDClub

102 | 9

4.86 ГБ

В этой теме нет новых непрочитанных сообщений. IMAX. Арктика 3D / IMAX. To the Arctic 3D (2012) BDRip 1080p от HDClub

12 | 3

5.31 ГБ

В этой теме нет новых непрочитанных сообщений. IMAX. На глубине морской / IMAX. Under the Sea (2009) BDRip 1080p | 3D-Video

176 | 16

7.29 ГБ

В этой теме нет новых непрочитанных сообщений. IMAX: Дельфины / IMAX: Dolphins (2000) BDRip 1080p от ExKinoRay

1 | 3

3.92 ГБ

В этой теме нет новых непрочитанных сообщений. IMAX. Космическая станция / IMAX. Space Station (2002) BDRip 1080p от NNNB | A

81 | 1

4.37 ГБ




Вы не можете начинать темы
Вы не можете отвечать на сообщения
Вы не можете редактировать свои сообщения
Вы не можете удалять свои сообщения
Вы не можете добавлять вложения

Перейти:  
Для Мосгорсуда, Роскомнадзора и рекламодателей: mosgorsud-torrent[собачка]yandex.ru
 Вход
ppkBB3cker v.2 © 2008-2014 @ PPK
[ Time : 0.052s | 14 Queries | GZIP : Off ]

Торрент трекер RUTOR.IN, Не можете зайти на rutor.org? Какой новый адрес рутор? Какое зеркало рутор? Не работает rutor.org и зеркала? Тогда наш торрент специально для вас. Rutor.in неофициальное зеркало rutor. В случае если у Вас заблокирован rutor или вдруг Вы не можете на него зайти, то Вы без труда сможете скачать бесплатно и без рекламы последние новинки кино, игр, сериалов и прочего у нас, на Rutor.in. Не нужно использовать прокси, чтобы зайти на рутор, достаточно воспользоваться нашим ресурсом. Все новые фильмы, игры, сериалы, книги и музыка за 2013 и 2014 годы через торрент бесплатно. Скачивайте фильмы в хорошем качестве, игры для пк, xbox, playstation без регистрации. У нас вы найдете новые Зарубежные сериалы и Русские сериалы 2013, 2014, 2015 годов. Оставайтесь с нами, качайте любимые фильмы, игры, сериалы, книги и музыку.