img image001 image001 image001 image001 image001 image001 image001 image001 image001 image001 image001 image001 image001 image001 image001

Planets Sun Sun Sun
Статистика раздачи
Автор: Снежана | Размер: 2.19 ГБ | Добавлен: 25 июл 2013
Раздают: 0    Качают: 2
Скачать торрент
Скачать торрент
Описание торрента

СообщениеДобавлено: 25 июл 2013 

#77

Информация о фильме
Название: Последние львы
Оригинальное название: The Last Lions
Год выхода: 2011
Жанр: Документальный
Режиссер: Дерек Жубер
В ролях: Джереми Айронс

О фильме: Львы мудрые и сильные животные по праву считаются царями природы. Так и было до недавнего времени... Человеческий эгоизм, неукротимая жажда развития поставила этот вид кошачьих на грань вымирания. Те особи, что остались в дикой природе, находятся под пристальным вниманием как защитников природы, так и алчных браконьеров. Ведь на черном рынке шкура льва стоит невероятно большие суммы. И находятся те люди, которые истребляют и без того вымирающий вид. Документальная лента "Последние львы" говорит сама за себя: этот фильм полностью посвящен жизни львов, проблемам, которые связаны с выживанием вида и возможными способами спасения величественных животных...

Страна: США, Ботсвана
Продолжительность: 01:29:41
Перевод: Профессиональный одноголосый (Дасевич)

Файл
Кодек: x264
Качество: BDRip 720p ( рип с Blu-Ray 1080p)
Видео: 1280х720, 3043 кб/с
Звук: AC3,6 ch, 448 кб/с





General
D:Poslednie.lvy.2011.x264.BDRip.720p.Generalfilm.mkv
Format : Matroska
Format version : Version 2
File size : 2.19 GiB
Duration : 1h 29mn
Overall bit rate : 3 491 Kbps
Movie name : Rip By DJ_Zum Для сайта Generalfilm.ws
Encoded date : UTC 2012-05-02 21:23:49
Writing application : mkvmerge v4.6.0 ('Still Crazy After All These Years') сборка от Apr 1 2011 21:01:49
Writing library : libebml v1.2.0 + libmatroska v1.1.0

Video
ID : 1
Format : AVC
Format/Info : Advanced Video Codec
Format profile : High@L3.1
Format settings, CABAC : Yes
Format settings, ReFrames : 5 frames
Codec ID : V_MPEG4/ISO/AVC
Duration : 1h 29mn
Bit rate : 3 043 Kbps
Width : 1 280 pixels
Height : 720 pixels
Display aspect ratio : 16:9
Frame rate : 23.976 fps
Color space : YUV
Chroma subsampling : 4:2:0
Bit depth : 8 bits
Scan type : Progressive
Bits/(Pixel*Frame) : 0.138
Stream size : 1.86 GiB (85%)
Writing library : x264 core 120 r2164 da19765
Encoding settings : cabac=1 / ref=5 / deblock=1:3:3 / analyse=0x3:0x113 / me=umh / subme=10 / psy=1 / psy_rd=1.00:0.10 / mixed_ref=1 / me_range=32 / chroma_me=1 / trellis=2 / 8x8dct=1 / cqm=0 / deadzone=21,11 / fast_pskip=0 / chroma_qp_offset=-3 / threads=6 / sliced_threads=0 / nr=0 / decimate=1 / interlaced=0 / bluray_compat=0 / constrained_intra=0 / bframes=5 / b_pyramid=2 / b_adapt=1 / b_bias=0 / direct=1 / weightb=1 / open_gop=0 / weightp=2 / keyint=240 / keyint_min=23 / scenecut=40 / intra_refresh=0 / rc_lookahead=40 / rc=2pass / mbtree=1 / bitrate=3043 / ratetol=1.0 / qcomp=0.60 / qpmin=0 / qpmax=69 / qpstep=4 / cplxblur=20.0 / qblur=0.5 / ip_ratio=1.40 / aq=1:1.00
Language : Russian
Default : Yes
Forced : Yes

Audio
ID : 2
Format : AC-3
Format/Info : Audio Coding 3
Mode extension : CM (complete main)
Codec ID : A_AC3
Duration : 1h 29mn
Bit rate mode : Constant
Bit rate : 448 Kbps
Channel(s) : 6 channels
Channel positions : Front: L C R, Side: L R, LFE
Sampling rate : 48.0 KHz
Bit depth : 16 bits
Compression mode : Lossy
Stream size : 287 MiB (13%)
Title : Профессиональный (одноголосый Дасевич)
Language : Russian
Default : Yes
Forced : Yes

Menu
00:00:00.000 : en:Chapter 01
00:05:00.000 : en:Chapter 02
00:10:00.000 : en:Chapter 03
00:15:00.000 : en:Chapter 04
00:20:00.000 : en:Chapter 05
00:25:00.000 : en:Chapter 06
00:30:00.000 : en:Chapter 07
00:35:00.000 : en:Chapter 08
00:40:00.000 : en:Chapter 09
00:45:00.000 : en:Chapter 10
00:50:00.000 : en:Chapter 11
00:55:00.000 : en:Chapter 12
01:00:00.000 : en:Chapter 13


Релиз от:



   Похожие торренты   Торрент   Размер 
В этой теме нет новых непрочитанных сообщений. Последние львы / The Last Lions (2011) BDRip 720p от denis 100 | D, A

8 | 2

4.37 ГБ

В этой теме нет новых непрочитанных сообщений. Последние львы / The Last Lions (2011) BDRip 720p от Leonardo and Scarabey | D | И.Тарадайкин

9 | 3

3.75 ГБ

В этой теме нет новых непрочитанных сообщений. Последние львы / The Last Lions (2011) BDRip-AVC от ExKinoRay

2 | 4

2.84 ГБ

В этой теме нет новых непрочитанных сообщений. Последние львы / The Last Lions (2011) BDRip от HELLYWOOD

3 | 3

1.45 ГБ

В этой теме нет новых непрочитанных сообщений. Последние львы / The Last Lions (2011) BDRip 1080p - R.G. SubVoice & Uniongang

1 | 2

8.89 ГБ

В этой теме нет новых непрочитанных сообщений. Последние львы / The Last Lions (2011) DVDRip

9 | 4

700.88 МБ

В этой теме нет новых непрочитанных сообщений. Последние львы / The Last Lions (2011) HDRip - R.G. SubVoice & Uniongang

7 | 2

1.37 ГБ




Вы не можете начинать темы
Вы не можете отвечать на сообщения
Вы не можете редактировать свои сообщения
Вы не можете удалять свои сообщения
Вы не можете добавлять вложения

Перейти:  
Для Мосгорсуда, Роскомнадзора и рекламодателей: mosgorsud-torrent[собачка]yandex.ru
 Вход
ppkBB3cker v.2 © 2008-2014 @ PPK
[ Time : 0.024s | 16 Queries | GZIP : Off ]

Торрент трекер RUTOR.IN, Не можете зайти на rutor.org? Какой новый адрес рутор? Какое зеркало рутор? Не работает rutor.org и зеркала? Тогда наш торрент специально для вас. Rutor.in неофициальное зеркало rutor. В случае если у Вас заблокирован rutor или вдруг Вы не можете на него зайти, то Вы без труда сможете скачать бесплатно и без рекламы последние новинки кино, игр, сериалов и прочего у нас, на Rutor.in. Не нужно использовать прокси, чтобы зайти на рутор, достаточно воспользоваться нашим ресурсом. Все новые фильмы, игры, сериалы, книги и музыка за 2013 и 2014 годы через торрент бесплатно. Скачивайте фильмы в хорошем качестве, игры для пк, xbox, playstation без регистрации. У нас вы найдете новые Зарубежные сериалы и Русские сериалы 2013, 2014, 2015 годов. Оставайтесь с нами, качайте любимые фильмы, игры, сериалы, книги и музыку.