img image001 image001 image001 image001 image001 image001 image001 image001 image001 image001 image001 image001 image001 image001 image001

Planets Sun Sun Sun
Статистика раздачи
Автор: Снежана | Размер: 13.68 ГБ | Добавлен: 25 июл 2013
Раздают: 2    Качают: 1
Скачать торрент
Скачать торрент
Описание торрента

СообщениеДобавлено: 25 июл 2013 

#77


Год выпуска: 2011
Страна: CША
Жанр: Документально-познавательный
Продолжительность: 13 серий по 20 мин.
Перевод: Профессиональный (одноголосый)
Русские субтитры: нет
Режиссер: Jeffrey Levine
Описание: Как известно — «мальчишки не взрослеют, лишь игрушки дорожают». Вот о таких игрушках (и «мальчишках») и рассказывает передача Tech Toys 360.

Техноигрушки, ч. 1.
Свежие новости трехмерного телевидения, спортивных камер высокой четкости и экологичных мотоциклов. Вы встретитесь с дизайнером первого в мире роскошного гибридного электромобиля.

Техноигрушки, ч. 2.
Рассказ о революционном электровелосипеде с педальным приводом, рюкзаке с солнечной панелью и последними новинками в области безопасности мотоциклов и серфинга.

Техноигрушки, ч. 3.
Свежие новости дизайна частных вертолетов, новаторский электромотоцикл с нулевым выбросом вредных газов и первый в мире собранный вручную бронированный паркетный внедорожник.

Техноигрушки, ч. 4.
Взгляните на музыкальный плеер, позволяющий слушать музыку под водой, и лазерное устройство, позволяющее нажатием кнопки произвести уборку в доме.

Техноигрушки, ч. 5.
Взгляните на сверхлегкий спортивный самолет новаторского дизайна, деревянный велосипед, новую концепцию цепочки для ключей и автомобиль, который может ездить под водой.

Техноигрушки, ч. 6.
Взгляните на самый быстрый в мире электровелосипед, революционный усилитель, превращающий любую поверхность в динамики, коробку для охлаждения водки и крутую водную игрушку.

Техноигрушки, ч. 7.
Взгляните на революционное судно на воздушной подушке, которое может летать, устройство, позволяющее управлять всей бытовой аппаратурой через смартфон, и запредельный снегоход.

Техноигрушки, ч. 8.
Взгляните на реактивное устройство на водном приводе, позволяющее подниматься до третьего этажа, кошелек, предупреждающий о краже, и первые в мире лыжные очки с GPS.

Техноигрушки, ч. 9.
Познакомьтесь с роскошным суперкаром Maserati GranTurismo, фотоаппаратом, способным снимать фотографии на 360 градусов, и Nissan Leaf - первым доступным электромобилем без выхлопа.

Техноигрушки, ч. 10.
Посмотрите на видеокамеру, которую можно надеть, пуленепробиваемый внедорожник, революционный катер с дистанционным управлением для водных лыж и дрон с управлением со смартфона.

Техноигрушки, ч. 11.
Посмотрите на элегантный и мощный Bugatti Veyron, роскошный смартфон Vertu Constellation Quest и персональную подводную лодку Triton.

Техноигрушки, ч. 12.
В этой серии мы едем в Монако на салон Top Marques посмотреть на последние технические новинки - суперкары среди которых Noble Automotive M600 и Koenigsegg Automotive`s Agera R.

Техноигрушки, ч. 13.
Взгляните на автотренажер CXC, роскошный гольфмобиль Garia, велотренажер Proform Le Tour de France и самое дорогое в мире пиво Jacobsen Vintage 3.


Качество: HDTV
Формат: TS
Видео кодек: H.264
Аудио кодек: AC3
Видео: MPEG-TS at 7492 Кбит/сек AVC at 6346 Кбит/сек 1920 x 1080 (1.778) at 25.000 fps
Аудио: Русский AC-3 at 384 Кбит/сек 6 каналов, 48,0 КГц
Audio: English AC-3 at 384 Кбит/сек 6 каналов, 48,0 КГц
Общее
Идентификатор : 12 (0xC)
Полное имя : F:UPLOADTechToys 360�7.Techtoys-360_ 13 серия.ts
Формат : MPEG-TS
Размер файла : 986 Мбайт
Продолжительность : 18 м.
Общий поток : 7259 Кбит/сек

Видео
Идентификатор : 325 (0x145)
Идентификатор меню : 12105 (0x2F49)
Формат : AVC
Формат/Информация : Advanced Video Codec
Профиль формата : Main@L4.0
Параметр CABAC формата : Да
Параметр ReFrames формата : 4 кадра
Идентификатор кодека : 27
Продолжительность : 18 м.
Битрейт : 6125 Кбит/сек
Ширина : 1920 пикселей
Высота : 1080 пикселей
Соотношение сторон : 16:9
Частота кадров : 25,000 кадров/сек
Стандарт вещания : Component
Цветовое пространство : YUV
Субдискретизация насыщенности : 4:2:0
Битовая глубина : 8 бит
Тип развёртки : Чересстрочная
Порядок развёртки : Верхнее поле первое
Бит/(Пиксели*Кадры) : 0.118
Размер потока : 832 Мбайт (84%)
Основные цвета : BT.709-5, BT.1361, IEC 61966-2-4, SMPTE RP177
Характеристики трансфера : BT.709-5, BT.1361
Коэффициенты матрицы : BT.709-5, BT.1361, IEC 61966-2-4 709, SMPTE RP177

Аудио #1
Идентификатор : 405 (0x195)
Идентификатор меню : 12105 (0x2F49)
Формат : AC-3
Формат/Информация : Audio Coding 3
Расширение режима : CM (complete main)
Идентификатор кодека : 6
Продолжительность : 18 м.
Вид битрейта : Постоянный
Битрейт : 384 Кбит/сек
Каналы : 6 каналов
Расположение каналов : Front: L C R, Side: L R, LFE
Частота : 48,0 КГц
Битовая глубина : 16 бит
Метод сжатия : С потерями
Задержка видео : 72 мс.
Размер потока : 52,2 Мбайт (5%)
Язык : Russian
Язык, дополнительно : Clean effects

Аудио #2
Идентификатор : 425 (0x1A9)
Идентификатор меню : 12105 (0x2F49)
Формат : AC-3
Формат/Информация : Audio Coding 3
Расширение режима : CM (complete main)
Идентификатор кодека : 6
Продолжительность : 18 м.
Вид битрейта : Постоянный
Битрейт : 384 Кбит/сек
Каналы : 6 каналов
Расположение каналов : Front: L C R, Side: L R, LFE
Частота : 48,0 КГц
Битовая глубина : 16 бит
Метод сжатия : С потерями
Задержка видео : 136 мс.
Размер потока : 52,2 Мбайт (5%)
Язык : English
Язык, дополнительно : Clean effects








   Похожие торренты   Торрент   Размер 
В этой теме нет новых непрочитанных сообщений. Техноигрушки / TechToys 360 [01-13 из 13] (2011) HDTVRip-AVC от Тorrent-Хzona

5 | 3

3.13 ГБ

В этой теме нет новых непрочитанных сообщений. Discovery: Техноигрушки / Tech Toys 360 [01-13 из 13] (2011) HDTVRip от ExKinoRay

7 | 4

4.45 ГБ

В этой теме нет новых непрочитанных сообщений. Сектор Зеро / Section zéro [01-04 из 8] (2016) HDTV 1080i HDTV 1080i от MediaClub | P

10 | 3

9.5 ГБ

В этой теме нет новых непрочитанных сообщений. Формула 1. Сезон 2011. Этап 8 из 19. Гран-при Европы. Гонка (2011) HDTV 1080i

2 | 2

9.54 ГБ

В этой теме нет новых непрочитанных сообщений. Формула 1. Сезон 2011. Этап 6 из 19. Гран-при Монако. Гонка (2011) HDTV 1080i

0 | 2

11.09 ГБ

В этой теме нет новых непрочитанных сообщений. Формула 1. Сезон 2011. Этап 18 из 19. Гран-при Абу-Даби. Гонка (2011) HDTV 1080i

2 | 2

9.48 ГБ

В этой теме нет новых непрочитанных сообщений. Формула 1. Сезон 2011. Этап 4 из 19. Гран-при Турции. Гонка (2011) HDTV 1080i

0 | 3

10.02 ГБ




Вы не можете начинать темы
Вы не можете отвечать на сообщения
Вы не можете редактировать свои сообщения
Вы не можете удалять свои сообщения
Вы не можете добавлять вложения

Перейти:  
Для Мосгорсуда, Роскомнадзора и рекламодателей: mosgorsud-torrent[собачка]yandex.ru
 Вход
ppkBB3cker v.2 © 2008-2014 @ PPK
[ Time : 0.095s | 14 Queries | GZIP : Off ]

Торрент трекер RUTOR.IN, Не можете зайти на rutor.org? Какой новый адрес рутор? Какое зеркало рутор? Не работает rutor.org и зеркала? Тогда наш торрент специально для вас. Rutor.in неофициальное зеркало rutor. В случае если у Вас заблокирован rutor или вдруг Вы не можете на него зайти, то Вы без труда сможете скачать бесплатно и без рекламы последние новинки кино, игр, сериалов и прочего у нас, на Rutor.in. Не нужно использовать прокси, чтобы зайти на рутор, достаточно воспользоваться нашим ресурсом. Все новые фильмы, игры, сериалы, книги и музыка за 2013 и 2014 годы через торрент бесплатно. Скачивайте фильмы в хорошем качестве, игры для пк, xbox, playstation без регистрации. У нас вы найдете новые Зарубежные сериалы и Русские сериалы 2013, 2014, 2015 годов. Оставайтесь с нами, качайте любимые фильмы, игры, сериалы, книги и музыку.