img image001 image001 image001 image001 image001 image001 image001 image001 image001 image001 image001 image001 image001 image001 image001

Planets Sun Sun Sun
Статистика раздачи
Автор: Снежана | Размер: 6.21 ГБ | Добавлен: 25 июл 2013
Раздают: 126    Качают: 7
Скачать торрент
Скачать торрент
Описание торрента

СообщениеДобавлено: 25 июл 2013 

#77

Информация о фильме:
Название: На глубине морской
Оригинальное название: Under the Sea
Год выхода: 2009
Жанр: Документальный
Режиссер: Ховард Холл

О фильме:
Снятый полностью трехмерными камерами IMAX®, этот новый фильм перемещает зрителей в одни из самых экзотических и изолированных подводных мест на Земле, включая Южную Австралию и Большой Барьерный риф, а так же Папуа-Новую Гвинею и Индонезию в знаменитом Коралловом Треугольнике. В фильме показаны привычки и среда обитания больших белых акул, яркой каракатицы, покрытых листвой морских драконов, гигантских скатов, медуз, зеленых морских черепах, игривых австралийских морских львов, шестифутовых угрей и множество других красочных рыб и обитателей морской жизни.

Выпущено: США, Канада
Продолжительность: 00:40:49
Перевод: Любительский (одноголосый) Trinitron
Формат 3D: Half SideBySide / Горизонтальная анаморфная стереопара
Порядок ракурсов: Параллельная пара



Файл:
Формат: MKV
Качество: BDRip 1080p
Видео: MPEG4 Video (H264) 1920x1080p 23.98fps 19.4 Mbps
Аудио1: Русский Dolby AC3 48000Hz 6ch 448kbps
Аудио2: Английский DTS 48000Hz 6ch 1510kbps
Русские субтитры: нет

Format : Matroska
File size : 6.21 GiB
Duration : 40mn 52s
Overall bit rate : 21.8 Mbps
Encoded date : UTC 2011-03-29 17:46:35
Writing application : mkvmerge v2.9.7 ('Tenderness') built on Jul 1 2009 18:43:35
Writing library : libebml v0.7.7 + libmatroska v0.8.1

Video
ID : 1
Format : AVC
Format/Info : Advanced Video Codec
Format profile : High@L4.1
Format settings, CABAC : Yes
Format settings, ReFrames : 4 frames
Format settings, GOP : M=4, N=32
Muxing mode : Container profile=Unknown@4.1
Codec ID : V_MPEG4/ISO/AVC
Duration : 40mn 52s
Bit rate : 19.4 Mbps
Width : 1 920 pixels
Height : 1 080 pixels
Display aspect ratio : 16:9
Frame rate : 23.976 fps
Color space : YUV
Chroma subsampling : 4:2:0
Bit depth : 8 bits
Scan type : Progressive
Bits/(Pixel*Frame) : 0.390
Stream size : 5.53 GiB (89%)
Writing library : x264 core 105 r1724 b02df7b
Encoding settings : cabac=1 / ref=4 / deblock=1:-1:-1 / analyse=0x3:0x113 / me=umh / subme=7 / psy=1 / psy_rd=1.00:0.15 / mixed_ref=1 / me_range=16 / chroma_me=1 / trellis=1 / 8x8dct=1 / cqm=0 / deadzone=21,11 / fast_pskip=0 / chroma_qp_offset=-3 / threads=12 / sliced_threads=0 / nr=0 / decimate=1 / interlaced=0 / constrained_intra=0 / bframes=3 / b_pyramid=2 / b_adapt=1 / b_bias=0 / direct=3 / weightb=1 / open_gop=0 / weightp=2 / keyint=250 / keyint_min=23 / scenecut=40 / intra_refresh=0 / rc_lookahead=40 / rc=crf / mbtree=1 / crf=18.0 / qcomp=0.60 / qpmin=10 / qpmax=51 / qpstep=4 / ip_ratio=1.40 / aq=1:1.00
Language : English

Audio #1
ID : 2
Format : AC-3
Format/Info : Audio Coding 3
Mode extension : CM (complete main)
Codec ID : A_AC3
Duration : 40mn 52s
Bit rate mode : Constant
Bit rate : 448 Kbps
Channel(s) : 6 channels
Channel positions : Front: L C R, Side: L R, LFE
Sampling rate : 48.0 KHz
Bit depth : 16 bits
Stream size : 131 MiB (2%)
Title : Russian
Language : Russian

Audio #2
ID : 3
Format : DTS
Format/Info : Digital Theater Systems
Codec ID : A_DTS
Duration : 40mn 52s
Bit rate mode : Constant
Bit rate : 1 510 Kbps
Channel(s) : 6 channels
Channel positions : Front: L C R, Side: L R, LFE
Sampling rate : 48.0 KHz
Bit depth : 24 bits
Stream size : 441 MiB (7%)
Language : English







   Похожие торренты   Торрент   Размер 
В этой теме нет новых непрочитанных сообщений. На глубине морской 3D / Under the Sea 3D (2009) BDRip 720p от HQ-ViDEO

54 | 10

3.04 ГБ

В этой теме нет новых непрочитанных сообщений. IMAX. На глубине морской / IMAX. Under the Sea (2009) BDRip 1080p | 3D-Video

176 | 16

7.29 ГБ

В этой теме нет новых непрочитанных сообщений. На глубине морской / Under the Sea (2009) BDRip от b1nd

3 | 6

763.41 МБ

В этой теме нет новых непрочитанных сообщений. На глубине морской / IMAX - Under the Sea (2009) BDRip 720p

2 | 2

2.25 ГБ

В этой теме нет новых непрочитанных сообщений. IMAX: На глубине морской / IMAX: Under the Sea (2009) BDRip 1080р от FREEISLAND

13 | 5

2.19 ГБ

В этой теме нет новых непрочитанных сообщений. На глубине / Into the Deep [IMAX] (1994) BDRip 1080p от Ash61 | 3D-Video | halfOU | Рус.Субтитры

90 | 6

4.15 ГБ

В этой теме нет новых непрочитанных сообщений. На глубине / Into the Deep [IMAX] (1994) BDRip 1080p от Ash61 | 3D-Video | halfOU | Рус.Субтитры

94 | 7

3.99 ГБ




Вы не можете начинать темы
Вы не можете отвечать на сообщения
Вы не можете редактировать свои сообщения
Вы не можете удалять свои сообщения
Вы не можете добавлять вложения

Перейти:  
Для Мосгорсуда, Роскомнадзора и рекламодателей: mosgorsud-torrent[собачка]yandex.ru
 Вход
ppkBB3cker v.2 © 2008-2014 @ PPK
[ Time : 0.030s | 14 Queries | GZIP : Off ]

Торрент трекер RUTOR.IN, Не можете зайти на rutor.org? Какой новый адрес рутор? Какое зеркало рутор? Не работает rutor.org и зеркала? Тогда наш торрент специально для вас. Rutor.in неофициальное зеркало rutor. В случае если у Вас заблокирован rutor или вдруг Вы не можете на него зайти, то Вы без труда сможете скачать бесплатно и без рекламы последние новинки кино, игр, сериалов и прочего у нас, на Rutor.in. Не нужно использовать прокси, чтобы зайти на рутор, достаточно воспользоваться нашим ресурсом. Все новые фильмы, игры, сериалы, книги и музыка за 2013 и 2014 годы через торрент бесплатно. Скачивайте фильмы в хорошем качестве, игры для пк, xbox, playstation без регистрации. У нас вы найдете новые Зарубежные сериалы и Русские сериалы 2013, 2014, 2015 годов. Оставайтесь с нами, качайте любимые фильмы, игры, сериалы, книги и музыку.