img image001 image001 image001 image001 image001 image001 image001 image001 image001 image001 image001 image001 image001 image001 image001

Planets Sun Sun Sun
Статистика раздачи
Автор: Снежана | Размер: 2.4 ГБ | Добавлен: 25 июл 2013
Раздают: 8    Качают: 3
Скачать торрент
Скачать торрент
Описание торрента

СообщениеДобавлено: 25 июл 2013 

#77

Оригинальное название: Grand Canyon Adventure: River at Risk
Название: Приключение в Большом каньоне - Река в опасности 3D
Год выхода: 2008
Жанр: приключения, документальный
Режиссер: Грег МакГилливрей
В ролях: Вэйд Дэвис, Никки Келли, Роберт Редфорд, Шена Ватахомиге

Сюжет фильма:
Мощный фильм от создателей «Эверест», рассказывающий об угрозе, нависшей над одним из главных пейзажных символов Америки. Вы увидите великую реку Колорадо, которая напомнит нам о самой гнетущей современной проблеме окружающей среды – нарастающая нехватка пресной воды во всем мире. Присоединитесь к адвокатам, занимающимся защитой окружающей среды, - Роберту Ф. Кеннеди Мл. и Уэйду Дэвису и их дочерям, путешествующим в глубину Большого Каньона вниз по течению реки, протекающей сквозь него. У вас участиться пульса, когда вы увидите захватывающую поездку по реке через стремительные пороги и поразительные каньоны. С помощью сногсшибательных фотографий и съемок с воздуха новоявленные кинематографисты попытаются захватить всю красоту реки Колорадо и Большого Каньона.Комментирует фильм – обладатель Оскара, актер, кинематографист и убежденный борец за сохранение окружающей среды Роберт Редфорд. Песни и музыку исполняет обладатель премии Гремми оркестр Дэйва Мэттьюса. Этот фильм заставит вас проявлять больше уважения к реками и воде и попытается донести осознание того, что и обычные люди могут изменить нашу высыхающую планету к лучшему.



Выпущено: США
Продолжительность: 00:44:36
Перевод: Профессиональный (одноголосый закадровый)

Файл:
Качество: HDrip 720p
Формат: AVI
Формат 3D: Анаглиф
Видео кодек: xVid
Аудио кодек: AC3
Видео: XviD; 1280x720; 16:9; 23,976 кадр/сек; 6401 Кбит/сек
Аудио 1: Russian; AC-3; 48,0 КГц; 640 Кбит/сек; 6ch(Front: L C R, Side: L R, LFE)
Аудио 2: English; AC-3; 48,0 КГц; 640 Кбит/сек; 6ch(Front: L C R, Side: L R, LFE)

Format : AVI
Format/Info : Audio Video Interleave
Format profile : OpenDML
File size : 2.40 GiB
Duration : 44mn 36s
Overall bit rate : 7 698 Kbps
Writing application : VirtualDubMod 1.5.10.2 (build 2542/release)
Writing library : VirtualDubMod build 2542/release

Video
ID : 0
Format : MPEG-4 Visual
Format profile : Advanced Simple@L5
Format settings, BVOP : Yes
Format settings, QPel : No
Format settings, GMC : No warppoints
Format settings, Matrix : Default (H.263)
Muxing mode : Packed bitstream
Codec ID : XVID
Codec ID/Hint : XviD
Duration : 44mn 36s
Bit rate : 6 401 Kbps
Width : 1 280 pixels
Height : 720 pixels
Display aspect ratio : 16:9
Frame rate : 23.976 fps
Color space : YUV
Chroma subsampling : 4:2:0
Bit depth : 8 bits
Scan type : Progressive
Bits/(Pixel*Frame) : 0.290
Stream size : 1.99 GiB (83%)
Writing library : XviD 1.2.1 (UTC 2008-12-04)

Audio #1
ID : 1
Format : AC-3
Format/Info : Audio Coding 3
Mode extension : CM (complete main)
Codec ID : 2000
Duration : 44mn 36s
Bit rate mode : Constant
Bit rate : 640 Kbps
Channel(s) : 6 channels
Channel positions : Front: L C R, Side: L R, LFE
Sampling rate : 48.0 KHz
Bit depth : 16 bits
Stream size : 204 MiB (8%)
Alignment : Split accross interleaves
Interleave, duration : 42 ms (1.00 video frame)
Interleave, preload duration : 500 ms

Audio #2
ID : 2
Format : AC-3
Format/Info : Audio Coding 3
Mode extension : CM (complete main)
Codec ID : 2000
Duration : 44mn 36s
Bit rate mode : Constant
Bit rate : 640 Kbps
Channel(s) : 6 channels
Channel positions : Front: L C R, Side: L R, LFE
Sampling rate : 48.0 KHz
Bit depth : 16 bits
Stream size : 204 MiB (8%)
Alignment : Split accross interleaves
Interleave, duration : 42 ms (1.00 video frame)
Interleave, preload duration : 500 ms







   Похожие торренты   Торрент   Размер 
В этой теме нет новых непрочитанных сообщений. Приключение в Большом каньоне: Река в опасности / Grand Canyon Adventure: River at Risk (2008) BDRip 720p by msltel

88 | 16

1.63 ГБ

В этой теме нет новых непрочитанных сообщений. Приключение в Большом каньоне: Река в опасности / Grand Canyon Adventure: River at Risk (2008) BDRip 720p от NNNB

106 | 15

1.97 ГБ

В этой теме нет новых непрочитанных сообщений. Приключение в Большом каньоне: Река в опасности / Grand Canyon Adventure: River at Risk (2008) BDRemux

2 | 2

8.6 ГБ

В этой теме нет новых непрочитанных сообщений. Приключение в Большом каньоне: Река в опасности / Grand Canyon Adventure: River at Risk (2008) BDRip-AVC by msltel

30 | 3

1.21 ГБ

В этой теме нет новых непрочитанных сообщений. Приключение в Большом каньоне: Река в опасности / Grand Canyon Adventure: River at Risk (2008) BDRip 1080p by msltel

85 | 19

3.67 ГБ

В этой теме нет новых непрочитанных сообщений. Таинственная река / Mystic River (2003) BDRip от HQ-VIDEO

48 | 9

2.55 ГБ

В этой теме нет новых непрочитанных сообщений. Зеленая река / Green River (2008) DVDRip

0 | 2

1.37 ГБ




Вы не можете начинать темы
Вы не можете отвечать на сообщения
Вы не можете редактировать свои сообщения
Вы не можете удалять свои сообщения
Вы не можете добавлять вложения

Перейти:  
Для Мосгорсуда, Роскомнадзора и рекламодателей: mosgorsud-torrent[собачка]yandex.ru
 Вход
ppkBB3cker v.2 © 2008-2014 @ PPK
[ Time : 0.047s | 14 Queries | GZIP : Off ]

Торрент трекер RUTOR.IN, Не можете зайти на rutor.org? Какой новый адрес рутор? Какое зеркало рутор? Не работает rutor.org и зеркала? Тогда наш торрент специально для вас. Rutor.in неофициальное зеркало rutor. В случае если у Вас заблокирован rutor или вдруг Вы не можете на него зайти, то Вы без труда сможете скачать бесплатно и без рекламы последние новинки кино, игр, сериалов и прочего у нас, на Rutor.in. Не нужно использовать прокси, чтобы зайти на рутор, достаточно воспользоваться нашим ресурсом. Все новые фильмы, игры, сериалы, книги и музыка за 2013 и 2014 годы через торрент бесплатно. Скачивайте фильмы в хорошем качестве, игры для пк, xbox, playstation без регистрации. У нас вы найдете новые Зарубежные сериалы и Русские сериалы 2013, 2014, 2015 годов. Оставайтесь с нами, качайте любимые фильмы, игры, сериалы, книги и музыку.