img image001 image001 image001 image001 image001 image001 image001 image001 image001 image001 image001 image001 image001 image001 image001

Planets Sun Sun Sun
Статистика раздачи
Автор: Снежана | Размер: 4.53 ГБ | Добавлен: 25 июл 2013
Раздают: 14    Качают: 4
Скачать торрент
Скачать торрент
Описание торрента

СообщениеДобавлено: 25 июл 2013 

#77

Информация о фильме:
Название: Вселенная: Семь чудес Солнечной системы
Оригинальное название: The Universe: 7 Wonders of The Solar System
Год выхода: 2010
Жанр: документальный, космос
Режиссер: Лаура Верклан

О фильме: В этом сериале с помощью современной компьютерной графики и, основываясь на передовых исследованиях в области космоса, создатели фильма смогли воссоздать то, что происходит на других планетах, в других галактиках, вообразить какие формы жизни могли бы развиться в других атмосферах. Вы сможете увидеть космические бедствия, параллельные вселенные, скорость света и узнать многое другое о тайнах космоса.

Выпущено: США
Продолжительность: 00:44:04
Перевод: Любительский одноголосый закадровый

Файл:
Формат: MKV
Качество: BDrip 1080p
Видео: MPEG4 Video (H264) 1920x1080 23.98fps 12.3 Mbps
Аудио 1: Russian : Dolby AC3 48000Hz 5.1ch 640 kbps
Аудио 2: English : DTS 48000Hz 5.1ch 1510kbps
Русские субтитры: нет

Format : Matroska
File size : 4.53 GiB
Duration : 44mn 4s
Overall bit rate : 14.7 Mbps
Encoded date : UTC 2011-01-03 18:18:14
Writing application : mkvmerge v2.9.7 ('Tenderness') built on Jul 1 2009 18:43:35
Writing library : libebml v0.7.7 + libmatroska v0.8.1

Video
ID : 1
Format : AVC
Format/Info : Advanced Video Codec
Format profile : High@L4.0
Format settings, CABAC : Yes
Format settings, ReFrames : 4 frames
Muxing mode : Container profile=Unknown@4.0
Codec ID : V_MPEG4/ISO/AVC
Duration : 44mn 4s
Bit rate : 12.3 Mbps
Width : 1 920 pixels
Height : 1 080 pixels
Display aspect ratio : 16:9
Frame rate : 23.976 fps
Color space : YUV
Chroma subsampling : 4:2:0
Bit depth : 8 bits
Scan type : Progressive
Bits/(Pixel*Frame) : 0.247
Stream size : 3.78 GiB (83%)
Writing library : x264 core 112 r1834 a51816a
Encoding settings : cabac=1 / ref=4 / deblock=1:-2:-2 / analyse=0x3:0x113 / me=umh / subme=7 / psy=1 / psy_rd=1.00:0.15 / mixed_ref=1 / me_range=16 / chroma_me=1 / trellis=2 / 8x8dct=1 / cqm=0 / deadzone=21,11 / fast_pskip=1 / chroma_qp_offset=-3 / threads=6 / sliced_threads=0 / nr=0 / decimate=1 / interlaced=0 / constrained_intra=0 / bframes=6 / b_pyramid=0 / b_adapt=2 / b_bias=0 / direct=3 / weightb=1 / open_gop=0 / weightp=2 / keyint=250 / keyint_min=23 / scenecut=40 / intra_refresh=0 / rc_lookahead=40 / rc=crf / mbtree=1 / crf=18.0 / qcomp=0.60 / qpmin=10 / qpmax=51 / qpstep=4 / ip_ratio=1.40 / aq=1:1.00
Language : English

Audio #1
ID : 2
Format : AC-3
Format/Info : Audio Coding 3
Mode extension : CM (complete main)
Codec ID : A_AC3
Duration : 44mn 4s
Bit rate mode : Constant
Bit rate : 640 Kbps
Channel(s) : 6 channels
Channel positions : Front: L C R, Side: L R, LFE
Sampling rate : 48.0 KHz
Bit depth : 16 bits
Stream size : 202 MiB (4%)
Language : Russian

Audio #2
ID : 3
Format : DTS
Format/Info : Digital Theater Systems
Codec ID : A_DTS
Duration : 44mn 4s
Bit rate mode : Constant
Bit rate : 1 510 Kbps
Channel(s) : 6 channels
Channel positions : Front: L C R, Side: L R, LFE
Sampling rate : 48.0 KHz
Bit depth : 24 bits
Stream size : 476 MiB (10%)
Language : English







   Похожие торренты   Торрент   Размер 
В этой теме нет новых непрочитанных сообщений. Вселенная: 7 чудес Солнечной системы / Universe: 7 Wonders of the Solar System (2010) BDRip 1080p от As61 | 3D-Video | halfOU | Лицензия

511 | 37

5.84 ГБ

В этой теме нет новых непрочитанных сообщений. History. Вселенная. Семь чудес Солнечной системы 3D / History. The Universe. 7 Wonders of The Solar System 3D (2010) BDRip 1080p от ExKinoRay

27 | 7

3.94 ГБ

В этой теме нет новых непрочитанных сообщений. Вселенная: 7 чудес Солнечной системы / Universe: 7 Wonders of the Solar System (2010) BDRip [720p] от HQ-ViDEO

39 | 5

2.18 ГБ

В этой теме нет новых непрочитанных сообщений. Вселенная: 7 чудес Солнечной системы 3D / Universe: 7 Wonders of the Solar System 3D (2010) BDrip 1080р | 3D-Video

21 | 9

7.99 ГБ

В этой теме нет новых непрочитанных сообщений. Вселенная: 7 чудес Солнечной системы / Universe: 7 Wonders of the Solar System (2010) BDRip от HELLYWOOD

22 | 4

981.55 МБ

В этой теме нет новых непрочитанных сообщений. Вселенная. 7 чудес Солнечной системы / History. The Universe. 7 Wonders of The Solar System (2010) BDRip от ExKinoRay

2 | 4

697.99 МБ

В этой теме нет новых непрочитанных сообщений. Вселенная. 7 чудес Солнечной системы / History. The Universe. 7 Wonders of The Solar System (2010) BDRip-AVC от ExKinoRay

29 | 5

1.32 ГБ




Вы не можете начинать темы
Вы не можете отвечать на сообщения
Вы не можете редактировать свои сообщения
Вы не можете удалять свои сообщения
Вы не можете добавлять вложения

Перейти:  
Для Мосгорсуда, Роскомнадзора и рекламодателей: mosgorsud-torrent[собачка]yandex.ru
 Вход
ppkBB3cker v.2 © 2008-2014 @ PPK
[ Time : 0.510s | 14 Queries | GZIP : Off ]

Торрент трекер RUTOR.IN, Не можете зайти на rutor.org? Какой новый адрес рутор? Какое зеркало рутор? Не работает rutor.org и зеркала? Тогда наш торрент специально для вас. Rutor.in неофициальное зеркало rutor. В случае если у Вас заблокирован rutor или вдруг Вы не можете на него зайти, то Вы без труда сможете скачать бесплатно и без рекламы последние новинки кино, игр, сериалов и прочего у нас, на Rutor.in. Не нужно использовать прокси, чтобы зайти на рутор, достаточно воспользоваться нашим ресурсом. Все новые фильмы, игры, сериалы, книги и музыка за 2013 и 2014 годы через торрент бесплатно. Скачивайте фильмы в хорошем качестве, игры для пк, xbox, playstation без регистрации. У нас вы найдете новые Зарубежные сериалы и Русские сериалы 2013, 2014, 2015 годов. Оставайтесь с нами, качайте любимые фильмы, игры, сериалы, книги и музыку.