img image001 image001 image001 image001 image001 image001 image001 image001 image001 image001 image001 image001 image001 image001 image001

Planets Sun Sun Sun
Статистика раздачи
Автор: Снежана | Размер: 6.31 ГБ | Добавлен: 24 июл 2013
Раздают: 162    Качают: 4
Скачать торрент
Скачать торрент
Описание торрента

СообщениеДобавлено: 24 июл 2013 


Информация о фильме
Название: Одна жизнь
Оригинальное название: One Life
Год выхода: 2011
Жанр: Документальный
Режиссер: Майкл Гантон, Марта Холмс
В ролях: Дэниэл Крэйг
О фильме:
За пять миллиардов лет, жизнь на Земле эволюционировала в невероятное богатство и разнообразность которые мы видим сегодня. «Одна Жизнь» - это праздник самых блестящих и захватывающих историй выживания в животном царстве. Сюжетная линия ведет нас через полный цикл жизни к рождению нового поколения, затрагивая все формы жизни на Земле. Неважно, крылья у нас или ласты, две ноги или восемь - торжествующая история жизни соединяет всех нас воедино. Поиск пищи, поиск жилья, выживание наперекор всем невзгодам, поиск родственной души, воспитание детей - темы «Одной Жизни» являются универсальными и коснутся сердца зрителей во всем мире.

Страна: Великобритания
Студия: BBC Earth
Продолжительность: 01:24:49
Перевод: Профессиональный (одноголосый , закадровый) Студия "Омикрон"
Файл
Кодек: MPEG-4 AVC/H.264
Формат: MKV
Качество: BDRip 1080p (источник Blu-Ray)
Видео: 1920 x 1080 (1.778) at 23.976 fps/AVC at 10,5 Мбит/сек
Звук: AAC at 165 Кбит/сек/2 канала, 48,0 КГц


Видео
Идентификатор : 1
Формат : AVC
Формат/Информация : Advanced Video Codec
Профиль формата : High@L4.0
Параметр CABAC формата : Да
Параметр ReFrames формата : 2 кадра
Идентификатор кодека : avc1
Идентификатор кодека/Информация : Advanced Video Coding
Продолжительность : 1 ч. 24 м.
Вид битрейта : Переменный
Битрейт : 10,5 Мбит/сек
Максимальный битрейт : 12,5 Мбит/сек
Ширина : 1920 пикселей
Высота : 1080 пикселей
Соотношение сторон : 16:9
Режим частоты кадров : Постоянный
Частота кадров : 23,976 кадра/сек
Цветовое пространство : YUV
Субдискретизация насыщенности : 4:2:0
Битовая глубина : 8 бит
Тип развёртки : Прогрессивная
Бит/(Пиксели*Кадры) : 0.211
Размер потока : 6,21 Гбайт (98%)
Дата кодирования : UTC 1995-03-02 15:33:12
Дата пометки : UTC 1995-03-02 15:33:12
Аудио
Идентификатор : 2
Формат : AAC
Формат/Информация : Advanced Audio Codec
Профиль формата : LC
Идентификатор кодека : 40
Продолжительность : 1 ч. 24 м.
Вид битрейта : Переменный
Битрейт : 165 Кбит/сек
Максимальный битрейт : 224 Кбит/сек
Каналы : 2 канала
Расположение каналов : Front: L R
Частота : 48,0 КГц
Метод сжатия : С потерями
Размер потока : 100 Мбайт (2%)
Язык : Russian
Дата кодирования : UTC 1995-03-02 15:33:12
Дата пометки : UTC 1995-03-02 15:33:12



   Похожие торренты   Торрент   Размер 
В этой теме нет новых непрочитанных сообщений. Одна жизнь / One Life (2011) Blu-Ray 1080p

2 | 4

34.85 ГБ

В этой теме нет новых непрочитанных сообщений. Одна жизнь / One Life (2011) Blu-Ray Remux 1080p

12 | 4

14.82 ГБ

В этой теме нет новых непрочитанных сообщений. BBC. Одна жизнь / Жизнь / One Life (2011) BDRip-AVC от KinoHitHD | P1

13 | 1

1.44 ГБ

В этой теме нет новых непрочитанных сообщений. Одна жизнь / One Life (2011) BDRip

38 | 2

1.36 ГБ

В этой теме нет новых непрочитанных сообщений. Одна жизнь / One Life (2011) BDRip 720p от HQ-ViDEO

55 | 7

4.51 ГБ

В этой теме нет новых непрочитанных сообщений. Лучшая жизнь / A Better Life (2011) BDRip 1080p от FireBit

8 | 4

5.9 ГБ

В этой теме нет новых непрочитанных сообщений. Лучшая жизнь / A Better Life (2011) BDRip 1080p от Leonardo and Scarabey | D

48 | 18

8.45 ГБ




Вы не можете начинать темы
Вы не можете отвечать на сообщения
Вы не можете редактировать свои сообщения
Вы не можете удалять свои сообщения
Вы не можете добавлять вложения

Перейти:  
Для Мосгорсуда, Роскомнадзора и рекламодателей: mosgorsud-torrent[собачка]yandex.ru
 Вход
ppkBB3cker v.2 © 2008-2014 @ PPK
[ Time : 0.044s | 15 Queries | GZIP : Off ]

cron