img image001 image001 image001 image001 image001 image001 image001 image001 image001 image001 image001 image001 image001 image001 image001

Planets Sun Sun Sun
Статистика раздачи
Автор: Снежана | Размер: 1.78 ГБ | Добавлен: 24 июл 2013
Раздают: 2    Качают: 1
Скачать торрент
Скачать торрент
Описание торрента

СообщениеДобавлено: 24 июл 2013 

#77

Информация о фильме
Название: Тайны древности: Потерянные пирамиды Китая
Оригинальное название: Ancient Secrets: China's lost Pyramids
Год выхода: 2010
Жанр: Документальный цикл, познавательный
Режиссер: Steven R. Tolley
О фильме:
Невероятная власть. Неописуемая роскошь. Удивительнейшие мумии. Огромные богатства.
Это загробный мир в древнекитайском стиле. Познакомьтесь с тайным, богатым, и трагическим миром китайских усыпальниц - рукотворные горы, которые прославляли власть императоров и повергали династии на колени. От гигантского погребального комплекса первого императора Китая до роскошных усыпальниц династии Тан, узнайте больше о китайских пирамидах.
Страна: США
Студия: New Zealand Limited
Продолжительность: 00:44:52
Перевод: Профессиональный (одноголосый)

Файл
Кодек: H.264
Качество: HDTV
Видео: MPEG-4 AVC, 1920x1080, (16:9), 25 fps, 5 207 kbps
Звук: Russian: 48 kHz, MPEG Audio, 2 ch, 192 kbps


General
ID : 1 (0x1)
Complete name : C:Тайны древности. Потерянные пирамиды Китая.ts
Format : MPEG-TS
File size : 1.78 GiB
Duration : 44mn 52s
Overall bit rate : 5 681 Kbps
Video
ID : 1400 (0x578)
Menu ID : 1 (0x1)
Format : AVC
Format/Info : Advanced Video Codec
Format profile : Main@L4.0
Format settings, CABAC : Yes
Format settings, ReFrames : 4 frames
Codec ID : 27
Duration : 44mn 52s
Bit rate : 5 207 Kbps
Width : 1 920 pixels
Height : 1 080 pixels
Display aspect ratio : 16:9
Frame rate : 25.000 fps
Standard : Component
Color space : YUV
Chroma subsampling : 4:2:0
Bit depth : 8 bits
Scan type : Interlaced
Scan order : Top Field First
Bits/(Pixel*Frame) : 0.100
Stream size : 1.63 GiB (92%)
Color primaries : BT.709-5, BT.1361, IEC 61966-2-4, SMPTE RP177
Transfer characteristics : BT.709-5, BT.1361
Matrix coefficients : BT.709-5, BT.1361, IEC 61966-2-4 709, SMPTE RP177
Audio
ID : 1410 (0x582)
Menu ID : 1 (0x1)
Format : MPEG Audio
Format version : Version 1
Format profile : Layer 2
Codec ID : 3
Duration : 44mn 52s
Bit rate mode : Constant
Bit rate : 192 Kbps
Channel(s) : 2 channels
Sampling rate : 48.0 KHz
Compression mode : Lossy
Stream size : 61.6 MiB (3%)
Language : Russian



   Похожие торренты   Торрент   Размер 
В этой теме нет новых непрочитанных сообщений. National Geographic : Тайны древности: Потерянные пирамиды Китая / Ancient Secrets: China's lost Pyramids(2010) SATRip

3 | 2

581.29 МБ

В этой теме нет новых непрочитанных сообщений. National Geographic : Тайны древности : Сфинкс / Ancient Secrets : The Sphinx (2010) SATRip

6 | 5

571.8 МБ

В этой теме нет новых непрочитанных сообщений. National Geographic : Тайны древности : Секретный код соборов / Ancient Secrets : Catherdrals decoded (2010) SATRip

6 | 3

571.44 МБ

В этой теме нет новых непрочитанных сообщений. National Geographic : Тайны древности : Загадка серебрянного фараона / Ancient secrets: Mystery of the silver pharaoh (2010) SATRip

6 | 2

571.35 МБ

В этой теме нет новых непрочитанных сообщений. National Geographic : Тайны древности : Настольная книга охотника на ведьм / Ancient Secrets : Witch hunter's bible (2010) SATRip

85 | 13

571.51 МБ

В этой теме нет новых непрочитанных сообщений. С точки зрения науки: Пирамиды / National Geographic: Pyramids (2006) TVRip

47 | 10

832.09 МБ

В этой теме нет новых непрочитанных сообщений. National Geographic: Секретные материалы древности / National Geographic: Ancient X-files [01-03 из 03] (2011) SATRip-AVC

14 | 6

2.75 ГБ




Вы не можете начинать темы
Вы не можете отвечать на сообщения
Вы не можете редактировать свои сообщения
Вы не можете удалять свои сообщения
Вы не можете добавлять вложения

Перейти:  
Для Мосгорсуда, Роскомнадзора и рекламодателей: mosgorsud-torrent[собачка]yandex.ru
 Вход
ppkBB3cker v.2 © 2008-2014 @ PPK
[ Time : 0.026s | 15 Queries | GZIP : Off ]

cron