img image001 image001 image001 image001 image001 image001 image001 image001 image001 image001 image001 image001 image001 image001 image001

Planets Sun Sun Sun
Статистика раздачи
Автор: Снежана | Размер: 1.91 ГБ | Добавлен: 25 июл 2013
Раздают: 13    Качают: 5
Скачать торрент
Скачать торрент
Описание торрента

СообщениеДобавлено: 25 июл 2013 

#77

Информация о фильме
Название: Чужие из бездны
Оригинальное название: Aliens of the Deep
Год выхода: 2005
Жанр: Документальный
Режиссер: Джеймс Кэмерон, Стивен Куэйл,
В ролях: Джеймс Кэмерон, Памела Конрад, Диджанна Фигероа, Кевин Хэнд, Лоретта Идальго, Майя Толстой и др.

О фильме:
Обладатель премии "Оскар" режиссер знаменитых "Титаника" и "Бездны" Джеймс Кэмерон (Лучший режиссер, "Титаник", 1997 г.), известный также как страстный исследователь морских пучин, открывает для вас тайную жизнь подводного мира в своем новом документальном мегапроекте, специально созданном для показа на сверхгигантских экранах IМАХ-кинотеатров. Новаторские съемки 3D-камерой, изумительные ландшафты океанического дна и невиданные создания глубин делают просмотр фильма поистине уникальным визуальным и эмоциональным переживанием.

Люди часто гадают, как будут выглядеть инопланетяне, если мы их когда-нибудь встретим. Пока что приходится полагаться на буйное воображение фантастов. Но ни один фантаст не способен измыслить тех поразительных тварей, что порою создает земная природа в пучинах океана. Стоит опуститься в батискафе на глубину в пару миль - и любые фантазии писателей бледнеют перед открывшимся перед вами сюрреалистическим пейзажем, населенным невозможными, диковинными чудищами! Авторы этого документального фильма приглашают вас в экспедицию на дно Атлантики, в мир вечного мрака, на рандеву с существами, что веками были скрыты от человека в безмолвной бездне океана...


Страна: США
Студия: Walt Disney Pictures & Walden Media
Продолжительность: 01:35:26
Перевод: Профессиональный (двухголосый, закадровый)

Файл
Формат: MKV
Кодек: V_MPEG4/ISO/AVC
Качество: DVDRip
Видео: 720 x 432 (1.667) at 25.000 fps/AVC at 2167 Кбит/сек
Звук: AC-3 at 640 Кбит/сек/2 канала, 48,0 КГц

Видео
Идентификатор : 1
Формат : AVC
Формат/Информация : Advanced Video Codec
Профиль формата : Main@L4.0
Параметр CABAC формата : Да
Параметр ReFrames формата : 2 кадра
Идентификатор кодека : V_MPEG4/ISO/AVC
Продолжительность : 1 ч. 35 м.
Битрейт : 2167 Кбит/сек
Ширина : 720 пикселей
Высота : 432 пикселя
Соотношение сторон : 1,667
Частота кадров : 25,000 кадров/сек
Частота кадров в оригинале : 12,500 кадров/сек
Цветовое пространство : YUV
Субдискретизация насыщенности : 4:2:0
Битовая глубина : 8 бит
Тип развёртки : Прогрессивная
Бит/(Пиксели*Кадры) : 0.279
Размер потока : 1,44 Гбайт (76%)
Библиотека кодирования : x264 core 34 svn-285M
Язык : Russian
Default : Да
Forced : Нет

Аудио
Идентификатор : 2
Формат : AC-3
Формат/Информация : Audio Coding 3
Расширение режима : CM (complete main)
Идентификатор кодека : A_AC3
Продолжительность : 1 ч. 35 м.
Вид битрейта : Постоянный
Битрейт : 640 Кбит/сек
Каналы : 2 канала
Расположение каналов : Front: L R
Частота : 48,0 КГц
Битовая глубина : 16 бит
Метод сжатия : С потерями
Размер потока : 437 Мбайт (22%)
Default : Да
Forced : Нет



   Похожие торренты   Торрент   Размер 
В этой теме нет новых непрочитанных сообщений. Чужие из бездны / Aliens of the Deep (2005) WEB-DLRip-AVC от -=HD-NET=-

15 | 8

1.55 ГБ

В этой теме нет новых непрочитанных сообщений. Чужие из бездны / Aliens of the Deep (2005) WEB-DL 720p | P

31 | 3

3.33 ГБ

В этой теме нет новых непрочитанных сообщений. На дне бездны / In Too Deep (1999) DVDRip - LOOK

2 | 4

1.39 ГБ

В этой теме нет новых непрочитанных сообщений. Чужие / Aliens (1986) DVD9

9 | 3

7.04 ГБ

В этой теме нет новых непрочитанных сообщений. Чужие / Aliens (1986) BD-Remux

3 | 6

29.54 ГБ

В этой теме нет новых непрочитанных сообщений. Чужие / Aliens (1986) BDRip 1080p | 60 fps

19 | 8

28.76 ГБ

В этой теме нет новых непрочитанных сообщений. Чужие / Aliens (1986) BDREMUX 1080p от RP4 CHG

12 | 3

31.21 ГБ




Вы не можете начинать темы
Вы не можете отвечать на сообщения
Вы не можете редактировать свои сообщения
Вы не можете удалять свои сообщения
Вы не можете добавлять вложения

Перейти:  
Для Мосгорсуда, Роскомнадзора и рекламодателей: mosgorsud-torrent[собачка]yandex.ru
 Вход
ppkBB3cker v.2 © 2008-2014 @ PPK
[ Time : 0.045s | 15 Queries | GZIP : Off ]

Торрент трекер RUTOR.IN, Не можете зайти на rutor.org? Какой новый адрес рутор? Какое зеркало рутор? Не работает rutor.org и зеркала? Тогда наш торрент специально для вас. Rutor.in неофициальное зеркало rutor. В случае если у Вас заблокирован rutor или вдруг Вы не можете на него зайти, то Вы без труда сможете скачать бесплатно и без рекламы последние новинки кино, игр, сериалов и прочего у нас, на Rutor.in. Не нужно использовать прокси, чтобы зайти на рутор, достаточно воспользоваться нашим ресурсом. Все новые фильмы, игры, сериалы, книги и музыка за 2013 и 2014 годы через торрент бесплатно. Скачивайте фильмы в хорошем качестве, игры для пк, xbox, playstation без регистрации. У нас вы найдете новые Зарубежные сериалы и Русские сериалы 2013, 2014, 2015 годов. Оставайтесь с нами, качайте любимые фильмы, игры, сериалы, книги и музыку.
cron