img image001 image001 image001 image001 image001 image001 image001 image001 image001 image001 image001 image001 image001 image001 image001

Planets Sun Sun Sun
Статистика раздачи
Автор: Снежана | Размер: 6.19 ГБ | Добавлен: 25 июл 2013
Раздают: 5    Качают: 3
Скачать торрент
Скачать торрент
Описание торрента

СообщениеДобавлено: 25 июл 2013 


Информация о фильме
Название: Пейзажи времени
Оригинальное название: TimeScapes: The Movie
Год выхода: 2012
Жанр: Релакс
Режиссер: Том Лоу
О фильме:
"TimeScapes" - это дебютный фильм оператора и режиссера Тома Лоу.
В фильме вы увидите потрясающие пейзажи, поистине сказочную красоту звёздного неба, людей и дикую природу американского Юго-Запада в замедленной съемке под красивую музыку.
Лоу провел 2 года, колеся по стране на своем пикапе "Toyota" в поисках подходящих сцен для фильма.
Смотрите и наслаждайтесь!

Страна: Новая Зеландия
Студия: Southwest Light Ltd.
Продолжительность: 00:48:22
Перевод: Не требуется (нет диалогов и комментариев)
Файл
Кодек: H.264
Формат: MP4
Качество: HD 1440p
Видео: 2560 x 1440 (1.778) at 23.976 fps/AVC at 18,0 Мбит/сек
Звук: AAC at 317 Кбит/сек/2 канала, 48,0 КГц


Видео
Идентификатор : 1
Формат : AVC
Формат/Информация : Advanced Video Codec
Профиль формата : Main@L5.1
Параметр CABAC формата : Да
Параметр ReFrames формата : 3 кадра
Идентификатор кодека : avc1
Идентификатор кодека/Информация : Advanced Video Coding
Продолжительность : 48 м.
Битрейт : 18,0 Мбит/сек
Ширина : 2560 пикселей
Высота : 1440 пикселей
Соотношение сторон : 16:9
Режим частоты кадров : Постоянный
Частота кадров : 23,976 кадра/сек
Стандарт вещания : NTSC
Цветовое пространство : YUV
Субдискретизация насыщенности : 4:2:0
Битовая глубина : 8 бит
Тип развёртки : Прогрессивная
Бит/(Пиксели*Кадры) : 0.204
Размер потока : 6,08 Гбайт (98%)
Язык : English
Дата кодирования : UTC 2012-05-25 11:04:10
Дата пометки : UTC 2012-05-25 11:04:10
Аудио
Идентификатор : 2
Формат : AAC
Формат/Информация : Advanced Audio Codec
Профиль формата : LC
Идентификатор кодека : 40
Продолжительность : 48 м.
Source_Duration : 48 м.
Вид битрейта : Переменный
Битрейт : 317 Кбит/сек
Максимальный битрейт : 416 Кбит/сек
Каналы : 2 канала
Расположение каналов : Front: L R
Частота : 48,0 КГц
Метод сжатия : С потерями
Размер потока : 110 Мбайт (2%)

Для дисплеев с 2560 x 1600 разрешением, таких как Apple 30 "или Dell Ultrasharp 27"



   Похожие торренты   Торрент   Размер 
В этой теме нет новых непрочитанных сообщений. Пейзажи времени / TimeScapes: The Movie (2012) HD 1080p

19 | 2

3.48 ГБ

В этой теме нет новых непрочитанных сообщений. Пейзажи времени / TimeScapes: The Movie (2012) BDRip AVC от Generalfilm

1 | 3

691.9 МБ

В этой теме нет новых непрочитанных сообщений. Пейзажи времени / TimeScapes: The Movie (2012) BDRip-AVC от ExKinoRay

2 | 2

847.26 МБ

В этой теме нет новых непрочитанных сообщений. Пейзажи времени / TimeScapes: The Movie (2012) BDRip 1080p

70 | 6

5.76 ГБ

В этой теме нет новых непрочитанных сообщений. Пейзажи времени / TimeScapes: The Movie (2012) BDRip 1080p | 60FPS

24 | 6

18.72 ГБ

В этой теме нет новых непрочитанных сообщений. Пейзажи времени / TimeScapes: The Movie (2012) Blu-Ray Remux 1080p от Generalfilm

120 | 3

10.44 ГБ

В этой теме нет новых непрочитанных сообщений. Пейзажи времени / TimeScapes: The Movie (2012) 4K Ultra HDRip 2160p

201 | 54

21.22 ГБ




Вы не можете начинать темы
Вы не можете отвечать на сообщения
Вы не можете редактировать свои сообщения
Вы не можете удалять свои сообщения
Вы не можете добавлять вложения

Перейти:  
Для Мосгорсуда, Роскомнадзора и рекламодателей: mosgorsud-torrent[собачка]yandex.ru
 Вход
ppkBB3cker v.2 © 2008-2014 @ PPK
[ Time : 0.035s | 14 Queries | GZIP : On ]

Торрент трекер RUTOR.IN, Не можете зайти на rutor.org? Какой новый адрес рутор? Какое зеркало рутор? Не работает rutor.org и зеркала? Тогда наш торрент специально для вас. Rutor.in неофициальное зеркало rutor. В случае если у Вас заблокирован rutor или вдруг Вы не можете на него зайти, то Вы без труда сможете скачать бесплатно и без рекламы последние новинки кино, игр, сериалов и прочего у нас, на Rutor.in. Не нужно использовать прокси, чтобы зайти на рутор, достаточно воспользоваться нашим ресурсом. Все новые фильмы, игры, сериалы, книги и музыка за 2013 и 2014 годы через торрент бесплатно. Скачивайте фильмы в хорошем качестве, игры для пк, xbox, playstation без регистрации. У нас вы найдете новые Зарубежные сериалы и Русские сериалы 2013, 2014, 2015 годов. Оставайтесь с нами, качайте любимые фильмы, игры, сериалы, книги и музыку.