img image001 image001 image001 image001 image001 image001 image001 image001 image001 image001 image001 image001 image001 image001 image001

Planets Sun Sun Sun
Статистика раздачи
Автор: Снежана | Размер: 4.09 ГБ | Добавлен: 25 июл 2013
Раздают: 4    Качают: 4
Скачать торрент
Скачать торрент
Описание торрента

СообщениеДобавлено: 25 июл 2013 


Информация о фильме
Название: Живая Земля
Оригинальное название: X-Ray Earth / Faszination Erde
Год выхода: 2010
Жанр: Документальный
Режиссер: Джон Бренкус, Микки Стерн, Робберт Курран
В ролях: Ученые
О фильме:
Вы увидите Землю так, как прежде никогда не видели... С помощью рентгеновского зрения мы увидим планету, которую нельзя увидеть никак иначе. Сейчас армада датчиков, расположенных под землей, в небе, в океане и даже в наших городах, исследуют планету. Они видят тайные области планеты, это очень похоже на томографию. Сканируя Землю, мы сможем увидеть планету - ту, которая окажется живой. Она словно огромный организм, чье сердце бьется как у человека...
Страна: США
Студия: BASE Productions, Inc. for National Geographic Channel, NGC Network International, LLC and NGC Network US, LLC.
Продолжительность: 01:34:01
Перевод: Профессиональный (одноголосый закадровый)
Файл
Кодек: V_MPEG4/ISO/AVC
Формат: MKV
Качество: BDRip 720p
Видео: 1280 x 720 (1.778) at 25.000 fps/AVC at 4826 Кбит/сек
Аудио 1: AC-3 at 384 Кбит/сек/6 каналов, 48,0 КГц/ Русский
Аудио 2: AC-3 at 448 Кбит/сек/6 каналов, 48,0 КГц/Английский
Аудио 3: AC-3 at 448 Кбит/сек/6 каналов, 48,0 КГц/Немецкий

Видео
Идентификатор : 1
Формат : AVC
Формат/Информация : Advanced Video Codec
Профиль формата : High@L4.1
Параметр CABAC формата : Да
Параметр ReFrames формата : 4 кадра
Идентификатор кодека : V_MPEG4/ISO/AVC
Продолжительность : 1 ч. 34 м.
Битрейт : 4826 Кбит/сек
Ширина : 1280 пикселей
Высота : 720 пикселей
Соотношение сторон : 16:9
Режим частоты кадров : Переменный
Частота кадров : 25,000 кадров/сек
Цветовое пространство : YUV
Субдискретизация насыщенности : 4:2:0
Битовая глубина : 8 бит
Тип развёртки : Прогрессивная
Бит/(Пиксели*Кадры) : 0.209
Размер потока : 3,17 Гбайт (77%)
Библиотека кодирования : x264 core 120
Язык : English
Default : Да
Forced : Нет
Основные цвета : BT.709-5, BT.1361, IEC 61966-2-4, SMPTE RP177
Характеристики трансфера : BT.709-5, BT.1361
Коэффициенты матрицы : BT.709-5, BT.1361, IEC 61966-2-4 709, SMPTE RP177
Аудио #1
Идентификатор : 2
Формат : AC-3
Формат/Информация : Audio Coding 3
Расширение режима : CM (complete main)
Идентификатор кодека : A_AC3
Продолжительность : 1 ч. 34 м.
Вид битрейта : Постоянный
Битрейт : 384 Кбит/сек
Каналы : 6 каналов
Расположение каналов : Front: L C R, Side: L R, LFE
Частота : 48,0 КГц
Битовая глубина : 16 бит
Метод сжатия : С потерями
Размер потока : 258 Мбайт (6%)
Заголовок : wivaja.zemlja_by_nyctalus
Язык : Russian
Default : Да
Forced : Да
Аудио #2
Идентификатор : 3
Формат : AC-3
Формат/Информация : Audio Coding 3
Расширение режима : CM (complete main)
Идентификатор кодека : A_AC3
Продолжительность : 1 ч. 34 м.
Вид битрейта : Постоянный
Битрейт : 448 Кбит/сек
Каналы : 6 каналов
Расположение каналов : Front: L C R, Side: L R, LFE
Частота : 48,0 КГц
Битовая глубина : 16 бит
Метод сжатия : С потерями
Размер потока : 301 Мбайт (7%)
Заголовок : xray.earth
Язык : English
Default : Нет
Forced : Нет
Аудио #3
Идентификатор : 4
Формат : AC-3
Формат/Информация : Audio Coding 3
Расширение режима : CM (complete main)
Идентификатор кодека : A_AC3
Продолжительность : 1 ч. 34 м.
Вид битрейта : Постоянный
Битрейт : 448 Кбит/сек
Каналы : 6 каналов
Расположение каналов : Front: L C R, Side: L R, LFE
Частота : 48,0 КГц
Битовая глубина : 16 бит
Метод сжатия : С потерями
Размер потока : 301 Мбайт (7%)
Заголовок : faszination.erde
Язык : German
Default : Нет
Forced : Нет



   Похожие торренты   Торрент   Размер 
В этой теме нет новых непрочитанных сообщений. BBC: Как нас создала Земля / BBC: How Earth Made Us [01-05 из 05] (2010) BDRip 720p

0 | 6

11.33 ГБ

В этой теме нет новых непрочитанных сообщений. BBC: Как нас создала Земля / BBC: How Earth Made Us [01-05 из 05] (2010) BDRip 1080p

2 | 6

22.67 ГБ

В этой теме нет новых непрочитанных сообщений. BBC : Земля / Земля - Картина нашей планеты / Earth (2007) BDRip от Rulya74

58 | 8

1.45 ГБ

В этой теме нет новых непрочитанных сообщений. Другая Земля / Another Earth (2011) BDRip 720p | Лицензия

652 | 1

4.76 ГБ

В этой теме нет новых непрочитанных сообщений. BBC: Планета Земля 2 / Planet Earth II [01-05 из 06] (2016) BDRip 720p | Р2

25 | 5

21.65 ГБ

В этой теме нет новых непрочитанных сообщений. Тихая Земля / The Quiet Earth (1985) BDRip 720p

23 | 14

3.84 ГБ

В этой теме нет новых непрочитанных сообщений. BBC: Планета Земля 2 / Planet Earth II [01-05 из 06] (2016) BDRip 720p | Р2

47 | 24

17.48 ГБ




Вы не можете начинать темы
Вы не можете отвечать на сообщения
Вы не можете редактировать свои сообщения
Вы не можете удалять свои сообщения
Вы не можете добавлять вложения

Перейти:  
Для Мосгорсуда, Роскомнадзора и рекламодателей: mosgorsud-torrent[собачка]yandex.ru
 Вход
ppkBB3cker v.2 © 2008-2014 @ PPK
[ Time : 0.045s | 14 Queries | GZIP : Off ]

Торрент трекер RUTOR.IN, Не можете зайти на rutor.org? Какой новый адрес рутор? Какое зеркало рутор? Не работает rutor.org и зеркала? Тогда наш торрент специально для вас. Rutor.in неофициальное зеркало rutor. В случае если у Вас заблокирован rutor или вдруг Вы не можете на него зайти, то Вы без труда сможете скачать бесплатно и без рекламы последние новинки кино, игр, сериалов и прочего у нас, на Rutor.in. Не нужно использовать прокси, чтобы зайти на рутор, достаточно воспользоваться нашим ресурсом. Все новые фильмы, игры, сериалы, книги и музыка за 2013 и 2014 годы через торрент бесплатно. Скачивайте фильмы в хорошем качестве, игры для пк, xbox, playstation без регистрации. У нас вы найдете новые Зарубежные сериалы и Русские сериалы 2013, 2014, 2015 годов. Оставайтесь с нами, качайте любимые фильмы, игры, сериалы, книги и музыку.