img image001 image001 image001 image001 image001 image001 image001 image001 image001 image001 image001 image001 image001 image001 image001

Planets Sun Sun Sun
Статистика раздачи
Автор: Снежана | Размер: 4.54 ГБ | Добавлен: 25 июл 2013
Раздают: 2    Качают: 1
Скачать торрент
Скачать торрент
Описание торрента

СообщениеДобавлено: 25 июл 2013 


Информация о фильме
Название: PBS Nature: Тайная жизнь леопарда
Оригинальное название: PBS Nature: Revealing the Leopard
Год выхода: 2010
Жанр: Документальный
Режиссер: Джим Конрад



О фильме:
Леопарды являются самыми умными, самыми опасными и, до недавнего времени, одной из наименее изученных пород семейства кошачьих. Они охотятся от Южной Африки до Сибири, от Аравии до Шри-Ланки и являются наиболее распространенным видом хищников. Леопард - это кошка, которая гуляет сама по себе, оставаясь невидимой и скрытой. Леопарды красивые убийцы, которые живут в тени. Этот фильм будет накапливать данные и составлять психологический портрет этого необыкновенно хитрого, опасного, умного и, бесспорно, одного из самых красивых и грациозны



Страна: США
Студия: Rubin Tarrant Productions, Trebitsch Produktion International (TPI), WNET Channel 13 New York
Продолжительность: 00:53:02
Перевод: Одноголосый, закадровый (Омикрон)
Файл
Кодек: MPEG4/ISO/AVC H.264
Формат: MKV
Качество: BDRip 720p
Видео: 1280 x 720 (1.778) at 29.970 fps/AVC at 11,6 Мбит/сек
Звук: AC-3 at 384 Кбит/сек/2 канала, 48,0 КГц



Видео
Идентификатор : 1
Формат : AVC
Формат/Информация : Advanced Video Codec
Профиль формата : High@L4.1
Параметр CABAC формата : Да
Параметр ReFrames формата : 7 кадров
Идентификатор кодека : V_MPEG4/ISO/AVC
Продолжительность : 53 м.
Битрейт : 11,6 Мбит/сек
Ширина : 1280 пикселей
Высота : 720 пикселей
Соотношение сторон : 16:9
Частота кадров : 29,970 кадров/сек
Цветовое пространство : YUV
Субдискретизация насыщенности : 4:2:0
Битовая глубина : 8 бит
Тип развёртки : Прогрессивная
Бит/(Пиксели*Кадры) : 0.421
Размер потока : 4,31 Гбайт (95%)
Заголовок : Revealing the Leopard (2010) -
Библиотека кодирования : x264 core 120 r2164 da19765
Язык : English
Default : Нет
Forced
: Нет
Аудио
Идентификатор : 2
Формат : AC-3
Формат/Информация : Audio Coding 3
Расширение режима : CM (complete main)
Идентификатор кодека : A_AC3
Продолжительность : 53 м.
Вид битрейта : Постоянный
Битрейт : 384 Кбит/сек
Каналы : 2 канала
Расположение каналов : Front: L R
Частота : 48,0 КГц
Битовая глубина : 16 бит
Метод сжатия : С потерями
Размер потока : 146 Мбайт (3%)
Заголовок : AC3 2.0 @ 384 kbps - Одноголосый закадровый, студия "Омикрон"
Язык : Russian
Default : Да
Forced : Нет



   Похожие торренты   Торрент   Размер 
В этой теме нет новых непрочитанных сообщений. Тайная жизнь леопарда / PBS: Nature - Revealing the Leopard (2010) HDRip

1 | 6

701.25 МБ

В этой теме нет новых непрочитанных сообщений. BBC: Мир природы - Снежный барс / BBC: Nature World - Snow Leopard [27x01] (2007) BDRip (720p) от ExKinoRay

13 | 4

1.36 ГБ

В этой теме нет новых непрочитанных сообщений. NATURE: Радиоактивные волки Чернобыля / NATURE: Radioactive Wolves (2011 ) BDRip-AVC от F-Torrents

21 | 3

937.57 МБ

В этой теме нет новых непрочитанных сообщений. PBS Nature. Удивительные лягушки / PBS Nature. Fabulous Frogs (2014) HDTVRip от -=HD-NET=-

122 | 31

590.78 МБ

В этой теме нет новых непрочитанных сообщений. VA - Nature Chill Vol 2 Relaxing Tunes Inspired by Nature (2015) MP3

17 | 2

276.17 МБ

В этой теме нет новых непрочитанных сообщений. Сын леопарда / Discovery. The Leopard Son (1996) HDTVRip

1 | 3

1.98 ГБ

В этой теме нет новых непрочитанных сообщений. Глаз леопарда / Eye of the Leopard (2006) HDTVRip от KinoZalSat

7 | 3

1.36 ГБ




Вы не можете начинать темы
Вы не можете отвечать на сообщения
Вы не можете редактировать свои сообщения
Вы не можете удалять свои сообщения
Вы не можете добавлять вложения

Перейти:  
Для Мосгорсуда, Роскомнадзора и рекламодателей: mosgorsud-torrent[собачка]yandex.ru
 Вход
ppkBB3cker v.2 © 2008-2014 @ PPK
[ Time : 0.036s | 14 Queries | GZIP : Off ]

Торрент трекер RUTOR.IN, Не можете зайти на rutor.org? Какой новый адрес рутор? Какое зеркало рутор? Не работает rutor.org и зеркала? Тогда наш торрент специально для вас. Rutor.in неофициальное зеркало rutor. В случае если у Вас заблокирован rutor или вдруг Вы не можете на него зайти, то Вы без труда сможете скачать бесплатно и без рекламы последние новинки кино, игр, сериалов и прочего у нас, на Rutor.in. Не нужно использовать прокси, чтобы зайти на рутор, достаточно воспользоваться нашим ресурсом. Все новые фильмы, игры, сериалы, книги и музыка за 2013 и 2014 годы через торрент бесплатно. Скачивайте фильмы в хорошем качестве, игры для пк, xbox, playstation без регистрации. У нас вы найдете новые Зарубежные сериалы и Русские сериалы 2013, 2014, 2015 годов. Оставайтесь с нами, качайте любимые фильмы, игры, сериалы, книги и музыку.