img image001 image001 image001 image001 image001 image001 image001 image001 image001 image001 image001 image001 image001 image001 image001

Planets Sun Sun Sun
Статистика раздачи
Автор: Снежана | Размер: 2.08 ГБ | Добавлен: 25 июл 2013
Раздают: 5    Качают: 7
Скачать торрент
Скачать торрент
Описание торрента

СообщениеДобавлено: 25 июл 2013 





Информация о фильме
Название: Таинственные миры: Цивилизация Майя
Оригинальное название: Secret Worlds: The civilization of the Maya
Год выхода: 2009
Жанр: Документальный
Режиссер: Джейм Смит



О фильме:
Тысячу лет одна из самых развитых цивилизаций оставалась затерянной в джунглях Центральной Америки. У Майя были огромные города с величественными монументами. Ими правили могущественные цари. У них была даже письменная история. Но по неизвестным причинам великая цивилизация обратилась в прах. В этим фильме мы попытаемся разгадать загадку страны Майя.



Страна: Швеция, Канада, Великобритания
Канал: Путешествия HD
Продолжительность: 00:45:06
Перевод: Одноголосый закадровый (профессиональный)
Файл
Кодек: MPEG4/ISO/AVC H.264
Формат: MKV
Качество: HDTVRip 720р
Видео: 1280 x 720 (1.778) at 25.000 fps/AVC at 6000 Кбит/сек
Звук: AC-3 at 192 Кбит/сек/2 канала, 48,0 КГц



Видео
Идентификатор : 1
Формат : AVC
Формат/Информация : Advanced Video Codec
Профиль формата : High@L4.1
Параметр CABAC формата : Да
Параметр ReFrames формата : 5 кадров
Идентификатор кодека : V_MPEG4/ISO/AVC
Продолжительность : 48 м.
Битрейт : 6000 Кбит/сек
Ширина : 1280 пикселей
Высота : 720 пикселей
Соотношение сторон : 16:9
Частота кадров : 25,000 кадров/сек
Цветовое пространство : YUV
Субдискретизация насыщенности : 4:2:0
Битовая глубина : 8 бит
Тип развёртки : Прогрессивная
Бит/(Пиксели*Кадры) : 0.260
Размер потока : 1,97 Гбайт (95%)
Заголовок : Rip by Fandorin (Kinozal.TV)
Библиотека кодирования : x264 core 98 r1649 c54c47d
Default : Да
Forced : Нет

Аудио
Идентификатор : 2
Формат : AC-3
Формат/Информация : Audio Coding 3
Расширение режима : CM (complete main)
Идентификатор кодека : A_AC3
Продолжительность : 48 м.
Вид битрейта : Постоянный
Битрейт : 192 Кбит/сек
Каналы : 2 канала
Расположение каналов : Front: L R
Частота : 48,0 КГц
Битовая глубина : 16 бит
Метод сжатия : С потерями
Размер потока : 66,0 Мбайт (3%)
Язык : Russian
Default : Да



   Похожие торренты   Торрент   Размер 
В этой теме нет новых непрочитанных сообщений. Таинственные миры. Иерусалим. Тайна сокровищ / Secret Worlds (2009) HDTV 1080i

0 | 6

2.96 ГБ

В этой теме нет новых непрочитанных сообщений. Антология Цивилизация 4 / Sid Meier's Civilization IV (2009) PC | Repack by XENON

1905 | 100

2.52 ГБ

В этой теме нет новых непрочитанных сообщений. National Geographic: Чужие миры / Alien Worlds (2009) HDTVRip 720p от BT-CLUB

31 | 2

1.63 ГБ

В этой теме нет новых непрочитанных сообщений. Кошмарные миры Герберта Уэллса / The Nightmare Worlds of H.G. Wells [S01] (2016) HDTV 720р | Sunshine Studio

639 | 110

1.41 ГБ

В этой теме нет новых непрочитанных сообщений. Затерянные миры. Пророчество Майя 2012 / Три года до конца света (2009) TVRip

1 | 1

558.86 МБ

В этой теме нет новых непрочитанных сообщений. BBC: Мир природы. Секреты подземелий майя / Natural World. Secrets of the Maya Underworld (2005) HDTVRip от Kaztorrents | P1

118 | 6

696.68 МБ

В этой теме нет новых непрочитанных сообщений. Чужие Миры / National Geographic: Alien Worlds (2009) TVRip

4 | 2

864.07 МБ




Вы не можете начинать темы
Вы не можете отвечать на сообщения
Вы не можете редактировать свои сообщения
Вы не можете удалять свои сообщения
Вы не можете добавлять вложения

Перейти:  
Для Мосгорсуда, Роскомнадзора и рекламодателей: mosgorsud-torrent[собачка]yandex.ru
 Вход
ppkBB3cker v.2 © 2008-2014 @ PPK
[ Time : 0.018s | 15 Queries | GZIP : On ]

Торрент трекер RUTOR.IN, Не можете зайти на rutor.org? Какой новый адрес рутор? Какое зеркало рутор? Не работает rutor.org и зеркала? Тогда наш торрент специально для вас. Rutor.in неофициальное зеркало rutor. В случае если у Вас заблокирован rutor или вдруг Вы не можете на него зайти, то Вы без труда сможете скачать бесплатно и без рекламы последние новинки кино, игр, сериалов и прочего у нас, на Rutor.in. Не нужно использовать прокси, чтобы зайти на рутор, достаточно воспользоваться нашим ресурсом. Все новые фильмы, игры, сериалы, книги и музыка за 2013 и 2014 годы через торрент бесплатно. Скачивайте фильмы в хорошем качестве, игры для пк, xbox, playstation без регистрации. У нас вы найдете новые Зарубежные сериалы и Русские сериалы 2013, 2014, 2015 годов. Оставайтесь с нами, качайте любимые фильмы, игры, сериалы, книги и музыку.