img image001 image001 image001 image001 image001 image001 image001 image001 image001 image001 image001 image001 image001 image001 image001

Planets Sun Sun Sun
Статистика раздачи
Автор: Снежана | Размер: 3.54 ГБ | Добавлен: 24 июл 2013
Раздают: 2    Качают: 3
Скачать торрент
Скачать торрент
Описание торрента

СообщениеДобавлено: 24 июл 2013 

#77

Информация о фильме
Название: Тайны подводного мира 3D
Оригинальное название: Deep Sea 3D
Год выхода: 2006
Жанр: Документальный, научно-популярный
Режиссер: Ховард Холл
В ролях: Джонни Депп, Кейт Уинслет (голос за кадром)

О фильме:
Корпорация «IMAX» представляет фильм о тайнах морских глубин. Зрители знакомятся с уникальнейшими обитателями подводного мира и узнают о необычных порядках и законах, царящих на дне мирового океана.
Анаглифическое стерео изображение: смотреть в очках

Страна: США, Канада - IMAX Corporation, Warner Bros. Pictures
Продолжительность: 00:40:48
Перевод: Дублированный

Файл
Формат: MKV
Качество: BDRip 720p
Видео: MPEG4 Video (H264) 1280x1440 23.98fps 11.3 Mbps
Аудио1: Русский Dolby AC3 48000Hz 6ch 448kbps
Аудио2: Английский Dolby AC3 48000Hz 6ch 448kbps
Размер: 3.54 GB

Format : Matroska
File size : 3.54 GiB
Duration : 40mn 49s
Overall bit rate : 12.4 Mbps
Encoded date : UTC 2010-09-06 07:26:03
Writing application : mkvmerge v2.9.7 ('Tenderness') built on Jul 1 2009 18:43:35
Writing library : libebml v0.7.7 + libmatroska v0.8.1

Video
ID : 1
Format : AVC
Format/Info : Advanced Video Codec
Format profile : High@L4.0
Format settings, CABAC : Yes
Format settings, ReFrames : 4 frames
Muxing mode : Container profile=Unknown@4.0
Codec ID : V_MPEG4/ISO/AVC
Duration : 40mn 49s
Bit rate : 11.3 Mbps
Width : 1 280 pixels
Height : 1 440 pixels
Display aspect ratio : 0.889
Frame rate : 23.976 fps
Color space : YUV
Chroma subsampling : 4:2:0
Bit depth : 8 bits
Scan type : Progressive
Bits/(Pixel*Frame) : 0.255
Stream size : 3.21 GiB (91%)
Writing library : x264 core 104 r1703 cd21d05
Encoding settings : cabac=1 / ref=4 / deblock=1:-1:-1 / analyse=0x3:0x113 / me=umh / subme=7 / psy=1 / psy_rd=1.00:0.15 / mixed_ref=1 / me_range=16 / chroma_me=1 / trellis=2 / 8x8dct=1 / cqm=0 / deadzone=21,11 / fast_pskip=1 / chroma_qp_offset=-3 / threads=6 / sliced_threads=0 / nr=0 / decimate=1 / interlaced=0 / constrained_intra=0 / bframes=6 / b_pyramid=0 / b_adapt=2 / b_bias=0 / direct=3 / weightb=1 / open_gop=0 / weightp=2 / keyint=250 / keyint_min=23 / scenecut=40 / intra_refresh=0 / rc_lookahead=40 / rc=crf / mbtree=1 / crf=18.0 / qcomp=0.60 / qpmin=10 / qpmax=51 / qpstep=4 / ip_ratio=1.40 / aq=1:1.00
Language : English

Audio #1
ID : 2
Format : AC-3
Format/Info : Audio Coding 3
Mode extension : CM (complete main)
Codec ID : A_AC3
Duration : 40mn 49s
Bit rate mode : Constant
Bit rate : 448 Kbps
Channel(s) : 6 channels
Channel positions : Front: L C R, Side: L R, LFE
Sampling rate : 48.0 KHz
Bit depth : 16 bits
Stream size : 131 MiB (4%)
Language : Russian

Audio #2
ID : 3
Format : AC-3
Format/Info : Audio Coding 3
Mode extension : CM (complete main)
Codec ID : A_AC3
Duration : 40mn 49s
Bit rate mode : Constant
Bit rate : 448 Kbps
Channel(s) : 6 channels
Channel positions : Front: L C R, Side: L R, LFE
Sampling rate : 48.0 KHz
Bit depth : 16 bits
Stream size : 131 MiB (4%)
Language : English


Скриншоты






   Похожие торренты   Торрент   Размер 
В этой теме нет новых непрочитанных сообщений. Тайны подводного мира 3D / Deep Sea 3D (2006) BDRip 1080p | 3D-Video

149 | 8

3.83 ГБ

В этой теме нет новых непрочитанных сообщений. Тайны подводного мира / Deep Sea (2006) BDRip-AVC | D

137 | 4

742.91 МБ

В этой теме нет новых непрочитанных сообщений. Тайны подводного мира 3D / Deep Sea 3D (2006) DVD5

3 | 4

2.57 ГБ

В этой теме нет новых непрочитанных сообщений. Тайны подводного мира, Жизнь глубин / IMAX - Deep Sea, IMAX - Into the Deep (2006) BDRip

76 | 5

1.24 ГБ

В этой теме нет новых непрочитанных сообщений. Тайны подводного мира 3D / Deep Sea 3D (2006) DVDRip от KinoZalSat

6 | 2

699.38 МБ

В этой теме нет новых непрочитанных сообщений. Дайвер. Тайны подводного мира (2008) PC

19 | 2

738.88 МБ

В этой теме нет новых непрочитанных сообщений. Тайны планеты Земля. Акулы : Властелины подводного мира / Sharks : Kings of the Ocean (2013) WEB-DLRip-AVC от -=HD-NET=-

38 | 4

756.83 МБ




Вы не можете начинать темы
Вы не можете отвечать на сообщения
Вы не можете редактировать свои сообщения
Вы не можете удалять свои сообщения
Вы не можете добавлять вложения

Перейти:  
Для Мосгорсуда, Роскомнадзора и рекламодателей: mosgorsud-torrent[собачка]yandex.ru
 Вход
ppkBB3cker v.2 © 2008-2014 @ PPK
[ Time : 0.037s | 15 Queries | GZIP : Off ]

cron