img image001 image001 image001 image001 image001 image001 image001 image001 image001 image001 image001 image001 image001 image001 image001

Planets Sun Sun Sun
Статистика раздачи
Автор: Снежана | Размер: 3.83 ГБ | Добавлен: 25 июл 2013
Раздают: 149    Качают: 8
Скачать торрент
Скачать торрент
Описание торрента

СообщениеДобавлено: 25 июл 2013 

#77

Информация о фильме
Название: Тайны подводного мира 3D
Оригинальное название: Deep Sea 3D
Год выхода: 2006
Жанр: Документальный, научно-популярный
Режиссер: Ховард Холл
В ролях: Джонни Депп, Кейт Уинслет (голос за кадром)

О фильме:
Корпорация «IMAX» представляет фильм о тайнах морских глубин. Зрители знакомятся с уникальнейшими обитателями подводного мира и узнают о необычных порядках и законах, царящих на дне мирового океана.
Анаглифическое стерео изображение: смотреть в очках

Страна: США, Канада - IMAX Corporation, Warner Bros. Pictures
Продолжительность: 00:40:48
Перевод: Дублированный

Файл
Формат: MKV
Качество: BDRip 1080p
Видео: AVC / 1920х1080p / 23,976 fps / 12.3 Mbps
Аудио#1: Русский / AC3 / 48 KHz / 5.1 ch / 448 Kbps
Аудио#2: Английский / AC3 / 48 KHz / 5.1 ch / 448 Kbps
Размер: 3.89 GB
Скачать: Сэмпл

General
Unique ID : 249309288501946204239744801717656536700 (0xBB8F38F01F575C4D8A8F9B16F8E0C67C)
Complete name : F:DownloadsIMAX.DeepSeaIn3D.halfOU.AC3.ash61.mkv
Format : Matroska
File size : 3.83 GiB
Duration : 40mn 49s
Overall bit rate : 13.4 Mbps
Encoded date : UTC 2011-04-09 13:48:43
Writing application : mkvmerge v4.6.0 ('Still Crazy After All These Years') сборка от Mar 10 2011 02:50:32
Writing library : libebml v1.2.0 + libmatroska v1.1.0

Video
ID : 1
Format : AVC
Format/Info : Advanced Video Codec
Format profile : High@L4.1
Format settings, CABAC : Yes
Format settings, ReFrames : 4 frames
Format settings, GOP : M=3, N=47
Codec ID : V_MPEG4/ISO/AVC
Duration : 40mn 49s
Bit rate : 12.3 Mbps
Width : 1 920 pixels
Height : 1 080 pixels
Display aspect ratio : 0.889
Original display aspect ratio : 16:9
Frame rate : 23.976 fps
Color space : YUV
Chroma subsampling : 4:2:0
Bit depth : 8 bits
Scan type : Progressive
Bits/(Pixel*Frame) : 0.247
Stream size : 3.50 GiB (91%)
Writing library : x264 core 112 r1834 a51816a
Encoding settings : cabac=1 / ref=4 / deblock=1:-1:-1 / analyse=0x3:0x113 / me=umh / subme=9 / psy=1 / psy_rd=1.00:0.15 / mixed_ref=1 / me_range=16 / chroma_me=1 / trellis=2 / 8x8dct=1 / cqm=0 / deadzone=21,11 / fast_pskip=1 / chroma_qp_offset=-3 / threads=3 / sliced_threads=0 / nr=0 / decimate=1 / interlaced=0 / constrained_intra=0 / bframes=4 / b_pyramid=0 / b_adapt=2 / b_bias=0 / direct=3 / weightb=1 / open_gop=0 / weightp=2 / keyint=250 / keyint_min=23 / scenecut=40 / intra_refresh=0 / rc_lookahead=40 / rc=crf / mbtree=1 / crf=18.0 / qcomp=0.60 / qpmin=10 / qpmax=51 / qpstep=4 / vbv_maxrate=50000 / vbv_bufsize=50000 / crf_max=0.0 / ip_ratio=1.40 / aq=1:1.00 / nal_hrd=none

Audio #1
ID : 2
Format : AC-3
Format/Info : Audio Coding 3
Mode extension : CM (complete main)
Codec ID : A_AC3
Duration : 40mn 49s
Bit rate mode : Constant
Bit rate : 448 Kbps
Channel(s) : 6 channels
Channel positions : Front: L C R, Side: L R, LFE
Sampling rate : 48.0 KHz
Bit depth : 16 bits
Compression mode : Lossy
Stream size : 131 MiB (3%)
Language : Russian

Audio #2
ID : 3
Format : AC-3
Format/Info : Audio Coding 3
Mode extension : CM (complete main)
Codec ID : A_AC3
Duration : 40mn 49s
Bit rate mode : Constant
Bit rate : 448 Kbps
Channel(s) : 6 channels
Channel positions : Front: L C R, Side: L R, LFE
Sampling rate : 48.0 KHz
Bit depth : 16 bits
Compression mode : Lossy
Stream size : 131 MiB (3%)
Language : English

Menu
00:00:00.000 : en: Chapter 1
00:08:56.703 : en: Chapter 2
00:19:50.981 : en: Chapter 3
00:28:37.549 : en: Chapter 4
00:39:29.409 : en: Chapter 5


Скриншоты






   Похожие торренты   Торрент   Размер 
В этой теме нет новых непрочитанных сообщений. Тайны подводного мира 3D / Deep Sea 3D (2006) BDRip 720p | 3D-Video

2 | 3

3.54 ГБ

В этой теме нет новых непрочитанных сообщений. Тайны подводного мира / Deep Sea (2006) BDRip-AVC | D

139 | 4

742.91 МБ

В этой теме нет новых непрочитанных сообщений. Тайны подводного мира 3D / Deep Sea 3D (2006) DVD5

3 | 4

2.57 ГБ

В этой теме нет новых непрочитанных сообщений. Тайны подводного мира, Жизнь глубин / IMAX - Deep Sea, IMAX - Into the Deep (2006) BDRip

76 | 5

1.24 ГБ

В этой теме нет новых непрочитанных сообщений. Тайны подводного мира 3D / Deep Sea 3D (2006) DVDRip от KinoZalSat

6 | 2

699.38 МБ

В этой теме нет новых непрочитанных сообщений. Дайвер. Тайны подводного мира (2008) PC

19 | 2

738.88 МБ

В этой теме нет новых непрочитанных сообщений. Тайны планеты Земля. Акулы : Властелины подводного мира / Sharks : Kings of the Ocean (2013) WEB-DLRip-AVC от -=HD-NET=-

38 | 4

756.83 МБ




Вы не можете начинать темы
Вы не можете отвечать на сообщения
Вы не можете редактировать свои сообщения
Вы не можете удалять свои сообщения
Вы не можете добавлять вложения

Перейти:  
Для Мосгорсуда, Роскомнадзора и рекламодателей: mosgorsud-torrent[собачка]yandex.ru
 Вход
ppkBB3cker v.2 © 2008-2014 @ PPK
[ Time : 1.749s | 14 Queries | GZIP : Off ]

Торрент трекер RUTOR.IN, Не можете зайти на rutor.org? Какой новый адрес рутор? Какое зеркало рутор? Не работает rutor.org и зеркала? Тогда наш торрент специально для вас. Rutor.in неофициальное зеркало rutor. В случае если у Вас заблокирован rutor или вдруг Вы не можете на него зайти, то Вы без труда сможете скачать бесплатно и без рекламы последние новинки кино, игр, сериалов и прочего у нас, на Rutor.in. Не нужно использовать прокси, чтобы зайти на рутор, достаточно воспользоваться нашим ресурсом. Все новые фильмы, игры, сериалы, книги и музыка за 2013 и 2014 годы через торрент бесплатно. Скачивайте фильмы в хорошем качестве, игры для пк, xbox, playstation без регистрации. У нас вы найдете новые Зарубежные сериалы и Русские сериалы 2013, 2014, 2015 годов. Оставайтесь с нами, качайте любимые фильмы, игры, сериалы, книги и музыку.