img image001 image001 image001 image001 image001 image001 image001 image001 image001 image001 image001 image001 image001 image001 image001

Planets Sun Sun Sun
Статистика раздачи
Автор: Снежана | Размер: 4.05 ГБ | Добавлен: 25 июл 2013
Раздают: 1    Качают: 3
Скачать торрент
Скачать торрент
Описание торрента

СообщениеДобавлено: 25 июл 2013 


Информация о фильме
Название: Война с медузами
Оригинальное название: War with jellyfish
Год выхода: 2012
Жанр: Документальный


О фильме:
Интересный и познавательный рассказ о том, какой урон рыболовству в Кореи приносят медузы и как с ними борются...


Страна: Великобритания
Продолжительность: 00:46:03
Перевод: Профессиональный (одноголосый)


Файл
Формат: TS
Кодек: H.264
Качество: HDTVRip 1080i
Видео: 1920 x 1080 (1.778) at 25.000 fps/AVC at 11,8 Мбит/сек
Звук: MPEG Audio at 192 Кбит/сек/2 канала, 48,0 КГц



Видео
Идентификатор : 323 (0x143)
Идентификатор меню : 12103 (0x2F47)
Формат : AVC
Формат/Информация : Advanced Video Codec
Профиль формата : Main@L4.0
Параметр CABAC формата : Да
Параметр ReFrames формата : 4 кадра
Идентификатор кодека : 27
Продолжительность : 46 м.
Битрейт : 11,8 Мбит/сек
Ширина : 1920 пикселей
Высота : 1080 пикселей
Соотношение сторон : 16:9
Частота кадров : 25,000 кадров/сек
Стандарт вещания : Component
Цветовое пространство : YUV
Субдискретизация насыщенности : 4:2:0
Битовая глубина : 8 бит
Тип развёртки : Чересстрочная
Порядок развёртки : Верхнее поле первое
Бит/(Пиксели*Кадры) : 0.227
Размер потока : 3,78 Гбайт (93%)
Основные цвета : BT.709-5, BT.1361, IEC 61966-2-4, SMPTE RP177
Характеристики трансфера : BT.709-5, BT.1361
Коэффициенты матрицы : BT.709-5, BT.1361, IEC 61966-2-4 709, SMPTE RP177

Аудио
Идентификатор : 403 (0x193)
Идентификатор меню : 12103 (0x2F47)
Формат : MPEG Audio
Версия формата : Version 1
Профиль формата : Layer 2
Идентификатор кодека : 4
Продолжительность : 46 м.
Вид битрейта : Постоянный
Битрейт : 192 Кбит/сек
Каналы : 2 канала
Частота : 48,0 КГц
Метод сжатия : С потерями
Задержка видео : -1 с. 108 мс.
Размер потока : 63,3 Мбайт (2%)
Язык : Russian
Язык, дополнительно : Clean effects

Меню
Идентификатор : 3303 (0xCE7)
Идентификатор меню : 12103 (0x2F47)
Продолжительность : 46 м.
Список : 323 (0x143) (AVC) / 403 (0x193) (MPEG Audio, Russian)
Язык : / Russian



   Похожие торренты   Торрент   Размер 
В этой теме нет новых непрочитанных сообщений. National Geographic: Нашествие медуз / Jellyfish invasion (2007) HDTVRip 720p от BT-CLUB

4 | 4

1.56 ГБ

В этой теме нет новых непрочитанных сообщений. Бесшумная война / Тихая война / Безмолвная война / The Silent War (2012) BDRip 720p | L2

3 | 5

5.15 ГБ

В этой теме нет новых непрочитанных сообщений. Галактическая война / Война Миротворцев / На Краю Вселенной / Farscape: The Peacekeeper Wars (2004) BDRemux 1080i

20 | 9

19.62 ГБ

В этой теме нет новых непрочитанных сообщений. Война в Корее [01-04 из 04] (2012) HDTV 1080i от MediaClub

179 | 165

16.49 ГБ

В этой теме нет новых непрочитанных сообщений. Война в Корее [01-02 из 04] (2012) HDTV 1080i от MediaClub

76 | 74

8.47 ГБ

В этой теме нет новых непрочитанных сообщений. Война в Корее [01 из 04] (2012) HDTV 1080i от MediaClub

93 | 25

4.46 ГБ

В этой теме нет новых непрочитанных сообщений. Война в Корее [01-03 из 04] (2012) HDTV 1080i от MediaClub

39 | 85

12.36 ГБ




Вы не можете начинать темы
Вы не можете отвечать на сообщения
Вы не можете редактировать свои сообщения
Вы не можете удалять свои сообщения
Вы не можете добавлять вложения

Перейти:  
Для Мосгорсуда, Роскомнадзора и рекламодателей: mosgorsud-torrent[собачка]yandex.ru
 Вход
ppkBB3cker v.2 © 2008-2014 @ PPK
[ Time : 0.019s | 14 Queries | GZIP : On ]

Торрент трекер RUTOR.IN, Не можете зайти на rutor.org? Какой новый адрес рутор? Какое зеркало рутор? Не работает rutor.org и зеркала? Тогда наш торрент специально для вас. Rutor.in неофициальное зеркало rutor. В случае если у Вас заблокирован rutor или вдруг Вы не можете на него зайти, то Вы без труда сможете скачать бесплатно и без рекламы последние новинки кино, игр, сериалов и прочего у нас, на Rutor.in. Не нужно использовать прокси, чтобы зайти на рутор, достаточно воспользоваться нашим ресурсом. Все новые фильмы, игры, сериалы, книги и музыка за 2013 и 2014 годы через торрент бесплатно. Скачивайте фильмы в хорошем качестве, игры для пк, xbox, playstation без регистрации. У нас вы найдете новые Зарубежные сериалы и Русские сериалы 2013, 2014, 2015 годов. Оставайтесь с нами, качайте любимые фильмы, игры, сериалы, книги и музыку.