img image001 image001 image001 image001 image001 image001 image001 image001 image001 image001 image001 image001 image001 image001 image001

Planets Sun Sun Sun
Статистика раздачи
Автор: Снежана | Размер: 672.75 МБ | Добавлен: 24 июл 2013
Раздают: 0    Качают: 1
Скачать торрент
Скачать торрент
Описание торрента

СообщениеДобавлено: 24 июл 2013 

Год, когда Земля сошла с ума / The Year the Earth Went Wild (2011) HDTVRip


Русское название: Год, когда Земля сошла с ума
Оригинальное название: The Year the Earth Went Wild
Режиссер / Телекомпания: Olly Jones, Julian Jones
Год выпуска: 2011
Жанр: Документальный

Описание:
Планета Земля - дом для семи миллиардов человек. Но под нашими ногами скрываются мощные силы. Погода в атмосфере меняется каждую минуту. В 2011 году планета сошла с ума. Это был необычный год. Жестокие землетрясения, рекордное количество торнадо и катастрофические цунами. Погибли тысячи людей. Ученые пытаются объяснить происходящее. Это рассказ о 2011 годе, когда Земля сошла с ума.

Продолжительность: 00:47:00

Перевод: Одноголосый закадровый, профессиональный

Видеокодек: Xvid
Битрейт видео: ~25.00fps 1800 Kbps
Размер кадра: 720x400
Качество видео: HDTVRip
Аудиокодек: AC3
Битрейт аудио: 48000Hz stereo 192kbps
Формат : AVI
Формат/Информация : Audio Video Interleave
Размер файла : 673 Мбайт
Продолжительность : 46 м.
Общий поток : 2001 Кбит/сек
Программа кодирования : VirtualDubMod 1.5.10.3 | www.virtualdub-fr.org || (build 2550/release)
Библиотека кодирования : VirtualDubMod build 2550/release

Видео
Идентификатор : 0
Формат : MPEG-4 Visual
Профиль формата : Advanced Simple@L5
Параметр BVOP формата : 2
Параметр QPel формата : Нет
Параметр GMC формата : Без точки перехода
Параметр матрицы формата : Default (H.263)
Идентификатор кодека : XVID
Идентификатор кодека/Подсказка : XviD
Продолжительность : 46 м.
Битрейт : 1800 Кбит/сек
Ширина : 720 пикселей
Высота : 400 пикселей
Соотношение сторон : 16:9
Частота кадров : 25,000 кадров/сек
Цветовое пространство : YUV
Субдискретизация насыщенности : 4:2:0
Битовая глубина : 8 бит
Тип развёртки : Прогрессивная
Метод сжатия : С потерями
Бит/(Пиксели*Кадры) : 0.250
Размер потока : 605 Мбайт (90%)
Библиотека кодирования : XviD 1.2.1 (UTC 2008-12-04)

Аудио
Идентификатор : 1
Формат : AC-3
Формат/Информация : Audio Coding 3
Расширение режима : CM (complete main)
Параметр Endianness формата : Big
Идентификатор кодека : 2000
Продолжительность : 46 м.
Вид битрейта : Постоянный
Битрейт : 192 Кбит/сек
Каналы : 2 канала
Расположение каналов : Front: L R
Частота : 48,0 КГц
Битовая глубина : 16 бит
Метод сжатия : С потерями
Размер потока : 64,5 Мбайт (10%)
Выравнивание : Разделение по промежуткам
Продолжительность промежутка : 40 мс. (1,00 видеокадр)
Время предзагрузки промежутка : 500 мс.

Скриншоты:





   Похожие торренты   Торрент   Размер 
В этой теме нет новых непрочитанных сообщений. Год, когда Земля сошла с ума / The Year the Earth Went Wild (2011) HDTVRip 720р | L1

0 | 2

1.46 ГБ

В этой теме нет новых непрочитанных сообщений. Поле битвы: Земля / Battlefield Earth / Battlefield Earth: A Saga of the Year 3000 (2000) BD-Remux | Расширенная Версия

75 | 14

19.23 ГБ

В этой теме нет новых непрочитанных сообщений. Поле битвы: Земля / Battlefield Earth / Battlefield Earth: A Saga of the Year 3000 (2000) BDRip от Rulya74 / Расширенная Версия

29 | 5

2.19 ГБ

В этой теме нет новых непрочитанных сообщений. Поле битвы: Земля / Battlefield Earth: A Saga of the Year 3000 (2000) WEB-DLRip-AVC | D, P2

55 | 6

2.42 ГБ

В этой теме нет новых непрочитанных сообщений. Поле битвы: Земля / Battlefield Earth: A Saga of the Year 3000 (2000) WEB-DLRip-AVC

28 | 4

2.2 ГБ

В этой теме нет новых непрочитанных сообщений. Поле битвы: Земля / Battlefield Earth: A Saga of the Year 3000 (2000) DVDRip

19 | 5

1.45 ГБ

В этой теме нет новых непрочитанных сообщений. Поле битвы: Земля / Battlefield Earth: A Saga of the Year 3000 (2000) WEB-DL 720p | D, P2

104 | 15

4.4 ГБ




Вы не можете начинать темы
Вы не можете отвечать на сообщения
Вы не можете редактировать свои сообщения
Вы не можете удалять свои сообщения
Вы не можете добавлять вложения

Перейти:  
Для Мосгорсуда, Роскомнадзора и рекламодателей: mosgorsud-torrent[собачка]yandex.ru
 Вход
ppkBB3cker v.2 © 2008-2014 @ PPK
[ Time : 0.040s | 15 Queries | GZIP : Off ]

cron