img image001 image001 image001 image001 image001 image001 image001 image001 image001 image001 image001 image001 image001 image001 image001

Planets Sun Sun Sun
Статистика раздачи
Автор: Снежана | Размер: 10.33 ГБ | Добавлен: 25 июл 2013
Раздают: 0    Качают: 4
Скачать торрент
Скачать торрент
Описание торрента

СообщениеДобавлено: 25 июл 2013 


Информация о фильме
Название: BBC: Смертоносные змеи Индии
Оригинальное название: BBC: One Million Snake Bites
Год выхода: 2011
Жанр: Документальный
Режиссер: Робин Смит
Участники: Бэрри Пейн, Дэвид Аттенборо, Стивен Фрай



О фильме:
В Индии насчитывается 275 видов змей. Каждый год более одного миллиона местных жителей подвергаются укусам от них. В попытке сократить количество летальных исходов, вызванных укусами, герпетолог Ромулус Уитакер запускает масштабную просветительную программу, в которой рассказывает людям об особенностях этих древних и загадочных пресмыкающихся. Путешествуя по Индии, он знакомит людей с огромным количеством гадюк, кобр и крайтов, которыми населен каждый дюйм этой страны; пытается объяснить: с чем связан первобытный страх человека перед змеей и дает ответ на вопрос: почему противоядие часто оказывается неэффективным.



Страна: Великобритания
Студия: BBC
Продолжительность: 00:48:59
Перевод: Профессиональный (двуголосый, закадровый)


Файл
Кодек: MPEG4/ISO/AVC/ H.264
Качество: BDRip 1080i
Видео: 1920 x 1080 (1.778) at 25.000 fps/AVC at 28,9 Мбит/сек
Звук: AC-3 at 640 Кбит/сек/2 канала, 48,0 КГц
Видео
Идентификатор : 1
Формат : AVC
Формат/Информация : Advanced Video Codec
Профиль формата : High@L4.1
Параметр CABAC формата : Да
Параметр ReFrames формата : 4 кадра
Идентификатор кодека : V_MPEG4/ISO/AVC
Продолжительность : 48 м.
Вид битрейта : Переменный
Битрейт : 28,9 Мбит/сек
Максимальный битрейт : 38,0 Мбит/сек
Ширина : 1920 пикселей
Высота : 1080 пикселей
Соотношение сторон : 16:9
Частота кадров : 25,000 кадров/сек
Стандарт вещания : PAL
Цветовое пространство : YUV
Субдискретизация насыщенности : 4:2:0
Битовая глубина : 8 бит
Тип развёртки : MBAFF
Бит/(Пиксели*Кадры) : 0.558
Размер потока : 9,90 Гбайт (96%)
Default : Нет
Forced : Нет
Основные цвета : BT.709-5, BT.1361, IEC 61966-2-4, SMPTE RP177.709-5, BT.1361
Коэффициенты матрицы : BT.709-5, BT.1361, IEC 61966-2-4 709, SMPTE RP177

Аудио
Идентификатор : 2
Формат : AC-3
Формат/Информация : Audio Coding 3
Расширение режима : CM
Характеристики трансфера : BT (complete main)
Идентификатор кодека : A_AC3
Продолжительность : 48 м.
Вид битрейта : Постоянный
Битрейт : 640 Кбит/сек
Каналы : 2 канала
Расположение каналов : Front: L R
Частота : 48,0 КГц
Битовая глубина : 16 бит
Метод сжатия : С потерями
Размер потока : 224 Мбайт (2%)
Default : Да
Forced : Нет




   Похожие торренты   Торрент   Размер 
В этой теме нет новых непрочитанных сообщений. BBC: Мир природы. Смертоносные змеи Индии / BBC: The Natural World. One Million Snake Bites (2011) BDRip-AVC от F-Torrents

8 | 3

716.31 МБ

В этой теме нет новых непрочитанных сообщений. BBC. Мир природы. Смертоносные змеи Индии / BBC. The Natural World - One Million Snake Bites (2011) BDRip от ExKinoRay

8 | 5

717.46 МБ

В этой теме нет новых непрочитанных сообщений. BBC: Живой мир - Смертоносные змеи Индии / BBC: The Natural World - One Million Snake Bites (2011) HDRip-AVC от Тorrent-Хzona

6 | 4

709.91 МБ

В этой теме нет новых непрочитанных сообщений. Опасные встречи: смертоносные змеи / Dangerous encounters (2006) HDTVRip-AVC от SilverCinema

4 | 4

793.74 МБ

В этой теме нет новых непрочитанных сообщений. Глаза змеи / Snake Eyes (1998) BDRip | А

84 | 9

1.46 ГБ

В этой теме нет новых непрочитанных сообщений. Глаза змеи / Snake Eyes (1998) BDRip 720p | D, P, A

45 | 7

7.88 ГБ

В этой теме нет новых непрочитанных сообщений. Стон черной змеи / Black Snake Moan (2006) BDRip от HQ-ViDEO | P2

101 | 7

2.18 ГБ




Вы не можете начинать темы
Вы не можете отвечать на сообщения
Вы не можете редактировать свои сообщения
Вы не можете удалять свои сообщения
Вы не можете добавлять вложения

Перейти:  
Для Мосгорсуда, Роскомнадзора и рекламодателей: mosgorsud-torrent[собачка]yandex.ru
 Вход
ppkBB3cker v.2 © 2008-2014 @ PPK
[ Time : 0.020s | 14 Queries | GZIP : Off ]

Торрент трекер RUTOR.IN, Не можете зайти на rutor.org? Какой новый адрес рутор? Какое зеркало рутор? Не работает rutor.org и зеркала? Тогда наш торрент специально для вас. Rutor.in неофициальное зеркало rutor. В случае если у Вас заблокирован rutor или вдруг Вы не можете на него зайти, то Вы без труда сможете скачать бесплатно и без рекламы последние новинки кино, игр, сериалов и прочего у нас, на Rutor.in. Не нужно использовать прокси, чтобы зайти на рутор, достаточно воспользоваться нашим ресурсом. Все новые фильмы, игры, сериалы, книги и музыка за 2013 и 2014 годы через торрент бесплатно. Скачивайте фильмы в хорошем качестве, игры для пк, xbox, playstation без регистрации. У нас вы найдете новые Зарубежные сериалы и Русские сериалы 2013, 2014, 2015 годов. Оставайтесь с нами, качайте любимые фильмы, игры, сериалы, книги и музыку.