img image001 image001 image001 image001 image001 image001 image001 image001 image001 image001 image001 image001 image001 image001 image001

Planets Sun Sun Sun
Статистика раздачи
Автор: Снежана | Размер: 2.52 ГБ | Добавлен: 24 июл 2013
Раздают: 0    Качают: 2
Скачать торрент
Скачать торрент
Описание торрента

СообщениеДобавлено: 24 июл 2013 


Информация о фильме
Название: Мумии Сицилии
Оригинальное название: Mummies Sicily
Год выхода: 2008
Жанр: Документальный
Режиссер: Ron Bowman
О фильме:
Катакомбы капуцинов - погребальные катакомбы, расположенные в городе Палермо на Сицилии, в которых в открытом виде покоятся останки более восьми тысяч человек - местной элиты и выдающихся граждан: духовенства, аристократии и представителей различных профессий. Это одна из самых знаменитых выставок мумий - скелетированные, мумифицированные, забальзамированные тела усопших лежат, стоят, висят, образуют композиции. Одним из шедевром является сицилийская спящая красавица Розалия Ломбардо – мумифицированное тело 2-х летней девочки, умершей от воспаления лёгких. Отец Розалии, тяжело переживавший её смерть, обратился к известному бальзамировщику доктору Альфредо Салафии с просьбой сохранить тело дочери от тления. Захоронение Розалии Ломбардо стало одним из последних в истории катакомб капуцинов в Палермо. В этом фильме итальянский ученый Дарио Пиомбино-Маскали берется за расследование этих таинственных захоронений мумий.
Страна: США
Студия: National Geographic Television
Продолжительность: 00:50:08
Перевод: Одноголосый закадровый, профессиональный
Файл
Формат: MPEG-TS
Кодек: Advanced Video Codec
Качество: HDTV 1080i
Видео: AVC at 6637 Кбит/сек/1920 x 1080 (1.778) at 25.000 fps
Звук: MPEG Audio at 192 Кбит/сек/2 канала, 48,0 КГц
Видео
Идентификатор : 1300 (0x514)
Идентификатор меню : 1 (0x1)
Формат : AVC
Формат/Информация : Advanced Video Codec
Профиль формата : Main@L4.0
Параметр CABAC формата : Да
Параметр ReFrames формата : 4 кадра
Идентификатор кодека : 27
Продолжительность : 50 м.
Битрейт : 6637 Кбит/сек
Ширина : 1920 пикселей
Высота : 1080 пикселей
Соотношение сторон : 16:9
Частота кадров : 25,000 кадров/сек
Стандарт вещания : Component
Цветовое пространство : YUV
Субдискретизация насыщенности : 4:2:0
Битовая глубина : 8 бит
Тип развёртки : Чересстрочная
Порядок развёртки : Верхнее поле первое
Бит/(Пиксели*Кадры) : 0.128
Размер потока : 2,32 Гбайт (92%)
Основные цвета : BT.709-5, BT.1361, IEC 61966-2-4, SMPTE RP177
Характеристики трансфера : BT.709-5, BT.1361
Коэффициенты матрицы : BT.709-5, BT.1361, IEC 61966-2-4 709, SMPTE RP177

Аудио
Идентификатор : 1310 (0x51E)
Идентификатор меню : 1 (0x1)
Формат : MPEG Audio
Версия формата : Version 1
Профиль формата : Layer 2
Идентификатор кодека : 3
Продолжительность : 50 м.
Вид битрейта : Постоянный
Битрейт : 192 Кбит/сек
Каналы : 2 канала
Частота : 48,0 КГц
Метод сжатия : С потерями
Размер потока : 68,8 Мбайт (3%)
Язык : Russian




   Похожие торренты   Торрент   Размер 
В этой теме нет новых непрочитанных сообщений. Мумии возвращаются / Ожившие мумии / Mummies alive [Полный 1 сезон] (1997) DVDRip

8 | 21

10.14 ГБ

В этой теме нет новых непрочитанных сообщений. Ожившие мумии / Mummies Alive [01x01] (2015) HDTVRip 720p | P 1

0 | 0

5.5 ГБ

В этой теме нет новых непрочитанных сообщений. Ожившие мумии / Mummies Alive [01x01] (2015) HDTVRip 720p | P 1

17 | 9

6.87 ГБ

В этой теме нет новых непрочитанных сообщений. Ожившие мумии / Mummies Alive [01x01] (2015) HDTVRip 720p | P 1

0 | 0

2.75 ГБ

В этой теме нет новых непрочитанных сообщений. Ожившие мумии / Mummies Alive [01x01] (2015) HDTVRip 720p | P 1

0 | 0

1.38 ГБ

В этой теме нет новых непрочитанных сообщений. Ожившие мумии / Mummies Alive [01x01] (2015) HDTVRip 720p | P 1

0 | 0

4.13 ГБ

В этой теме нет новых непрочитанных сообщений. Таинственные мумии Китая / China's Mystery Mummies (2007) DVDRip

5 | 2

1.04 ГБ




Вы не можете начинать темы
Вы не можете отвечать на сообщения
Вы не можете редактировать свои сообщения
Вы не можете удалять свои сообщения
Вы не можете добавлять вложения

Перейти:  
Для Мосгорсуда, Роскомнадзора и рекламодателей: mosgorsud-torrent[собачка]yandex.ru
 Вход
ppkBB3cker v.2 © 2008-2014 @ PPK
[ Time : 0.040s | 15 Queries | GZIP : Off ]

cron